Поиск

(Acid Jazz, Fusion, Jazz-Funk) Galactic - We Love 'Em Tonight (Live at Tipitina's) - 2001, FLAC (image+.cue), lossless

(Acid Jazz, Fusion, Jazz-Funk) Galactic - We Love 'Em Tonight (Live at Tipitina's) - 2001, FLAC (image+.cue), lossless
Треклист:
Galactic - We Love 'Em Tonight (Live at Tipitina's)
Жанр: Acid Jazz, Fusion, Jazz-Funk
Год выпуска диска: 2001
Производитель диска: Россия
Аудио кодек: FLAC
Тип рипа: image+.cue
Битрейт аудио: lossless
Продолжительность: 73:12
Происxождение рипа: Собственный рип из личной коллекции
Трэклист:
1. Crazyhorse Mongoose (Galactic, Mingledorff) 6:36
2. Moog Marmalade (Galactic) 5:20
3. Bobski/Jeffe 2000 (Galactic) 2:48
4. Villified (Galactic, McMurray) 3:50
5. I Get Lifted (Casey, Finch) 3:57
6. My Mind Is Hazy (Castanell, Dabon, Dabon, Harris, Richards, Richard) 5:17
7. Baker's Dozen (Ellman, Galactic) 9:27
8. Blue Pepper (Ellington, Strayhorn) 5:28
9. Lumpology (Ellman, Galactic) 4:20
10. Working in the Coal Mine (Dorsey, Toussaint) 2:53
11. Shibuya (Galactic) 9:50
12. Two Clowns (Galactic, Jekabson) 8:56
13. Sweet Leaf (Butler, Iommi, Osbourne, Ward) 4:25
Доп. информация:
Музыканты:
Theryi de'Clouet - Vocals
Ben Ellman - Tenor & Baritone Sax, Harmonica
Robert Mercurio - Bass
Stanton Moore - Drums
Jeff Raines - Guitar
Richard Vogel - Keyboards
Theresa Andersson - Background Vocals
 
EAC Report
Exact Audio Copy V0.99 prebeta 4 from 23. January 2008
Отчёт EAC об извлечении, выполненном 7. марта 2010, 23:54
Galactic / We Love 'Em Tonight (Live at Tipitina's)
Дисковод: ASUS DRW-1814BLT Adapter: 2 ID: 0
Режим чтения : Достоверность
Использование точного потока : Да
Отключение кэша аудио : Да
Использование указателей C2 : Нет
Коррекция смещения при чтении : 6
Способность читать области Lead-in и Lead-out : Нет
Заполнение пропущенных сэмплов тишиной : Да
Удаление блоков с тишиной в начале и конце : Нет
При вычислениях CRC использовались нулевые сэмплы : Да
Интерфейс : Встроенный Win32-интерфейс для Win NT/2000
Выходной формат : Пользовательский кодировщик
Выбранный битрейт : 768 kBit/s
Качество : Высокий
Добавление ID3-тэга : Нет
Утилита сжатия : D:\Program Files\Exact Audio Copy\Flac\Flac.exe
Дополнительные параметры : -8 --delete-input-file -o "D:\CDImage.flac" -V %s
TOC извлечённого CD
Трек | Старт | Длительность | Начальный сектор | Конечный сектор
---------------------------------------------------------------------
1 | 0:00.00 | 6:36.07 | 0 | 29706
2 | 6:36.07 | 5:20.03 | 29707 | 53709
3 | 11:56.10 | 2:48.70 | 53710 | 66379
4 | 14:45.05 | 3:50.40 | 66380 | 83669
5 | 18:35.45 | 3:57.32 | 83670 | 101476
6 | 22:33.02 | 5:17.28 | 101477 | 125279
7 | 27:50.30 | 9:27.25 | 125280 | 167829
8 | 37:17.55 | 5:28.22 | 167830 | 192451
9 | 42:46.02 | 4:20.30 | 192452 | 211981
10 | 47:06.32 | 2:53.63 | 211982 | 225019
11 | 50:00.20 | 9:50.32 | 225020 | 269301
12 | 59:50.52 | 8:56.13 | 269302 | 309514
13 | 68:46.65 | 4:25.10 | 309515 | 329399
Характеристики диапазона извлечения и сообщения об ошибках
Выбранный диапазон
Имя файла D:\Galactic - We Love 'Em Tonight (Live at Tipitina's).wav
Пиковый уровень 99.8 %
Качество диапазона 99.8 %
CRC теста 95FB59E1
CRC копии 95FB59E1
Копирование... OK
Ошибок не произошло
AccurateRip: сводка
Трек 1 точность не определена (достоверность 17) [BDBA2E03], AccurateRip вернул [46A62DBB]
Трек 2 точность не определена (достоверность 17) [9B995201], AccurateRip вернул [6BC0E05C]
Трек 3 точность не определена (достоверность 17) [9C9101F1], AccurateRip вернул [A953C2C7]
Трек 4 точность не определена (достоверность 17) [272BD4E1], AccurateRip вернул [0559A9F4]
Трек 5 точность не определена (достоверность 17) [E33B4F47], AccurateRip вернул [71B903EF]
Трек 6 точность не определена (достоверность 17) [FC7C88FF], AccurateRip вернул [66B9FBF2]
Трек 7 точность не определена (достоверность 17) [3A9F00D2], AccurateRip вернул [1A98A74B]
Трек 8 точность не определена (достоверность 17) [89AD17CD], AccurateRip вернул [4EED04AF]
Трек 9 точность не определена (достоверность 17) [6951516A], AccurateRip вернул [9861A15C]
Трек 10 точность не определена (достоверность 17) [4F3A237B], AccurateRip вернул [CC5DBAD5]
Трек 11 точность не определена (достоверность 14) [D931F802], AccurateRip вернул [DF2B1071]
Трек 12 точность не определена (достоверность 17) [327DF10B], AccurateRip вернул [7D52C01D]
Трек 13 точность не определена (достоверность 15) [18704F8C], AccurateRip вернул [F46D0D84]
Ни один трек не прошёл проверки на точность
В вашей базе может быть иной вариант штамповки диска
Конец отчёта
Приватный:
Нет (DHT включён)
Размер:
470.77 Мб (493,639,824 байт) » файлов: 9
Участники:
0 раздают, 0 качают (0 участников всего)
Внешние участники:
3 раздают, 1 качают (4 участников всего) [ Обновить ]
02:49
27
Нет комментариев. Ваш будет первым!