Поиск

2012 Stephane Galland, Tigran Hamasyan, Magic Malik, Carles Benavent, Petar Ralchev, Misirli Ahmet - Lobi {Outhere Music} [24-88.2]

2012 Stephane Galland, Tigran Hamasyan, Magic Malik, Carles Benavent, Petar Ralchev, Misirli Ahmet - Lobi {Outhere Music} [24-88.2]
Дата издания диска:
08/10/2012
Носитель:
WEB
Формат:
PCM
Тип рипа:
tracks
Контейнер:
FLAC (*.flac)
Количество каналов:
2.0
Разрядность/ЧД:
24/88,2
Битрейт аудио:
lossless
Наличие сканов:
буклет pdf
Релизёр (источник):
Qobuz

01. En Ruta
02. Aparani Par
03. Para Para
04. Ioio
05. Pralaya
06. Pygmalyte
07. Ali Pasha
08. The Sky Is Cloudy
09. Lamma Bada Yatathanna
10. Memory from Times of Yore
11. Hommage à Minino

Состав:
  • Stephane Galland (France) — drums
  • Magic Malik (Ivory Coast / Guinea / France / Guadeloupe) — flute & vocals
  • Tigran Hamasyan (Armenia) — piano
  • Petar Ralchev (Bulgaria) — accordion
  • Carles Benavent (Spain) — bass
  • Misirli Ahmet (Turkey) — percussions
Лог проверки качества
foobar2000 2.1.1 / Dynamic Range Meter 1.1.1
log date: 2024-05-08 11:38:09

--------------------------------------------------------------------------------
Analyzed: Stéphane Galland / Lobi
--------------------------------------------------------------------------------

DR         Peak         RMS     Duration Track
--------------------------------------------------------------------------------
DR8        0.00 dB    -9.65 dB      3:32 01-En Ruta
DR7        0.00 dB    -8.50 dB      5:06 02-Aparani Par
DR7        0.00 dB   -10.21 dB      5:20 03-Para Para
DR10       0.00 dB   -12.97 dB      5:26 04-Ioio
DR11      -3.66 dB   -17.65 dB      1:36 05-Pralaya
DR7        0.00 dB    -8.25 dB      4:19 06-Pygmalyte
DR7        0.00 dB    -9.29 dB      6:36 07-Ali Pasha
DR10       0.00 dB   -14.03 dB      5:01 08-The Sky Is Cloudy
DR7        0.00 dB   -11.31 dB      9:58 09-Lamma Bada Yatathanna
DR7        0.00 dB   -10.27 dB      7:47 10-Memory from Times of Yore
DR8        0.00 dB   -11.06 dB      5:32 11-Hommage à Minino
--------------------------------------------------------------------------------

Number of tracks:  11
Official DR value: DR8

Samplerate:        88200 Hz
Channels:          2
Bits per sample:   24
Bitrate:           2660 kbps
Codec:             FLAC
================================================================================
05:20
355
Нет комментариев. Ваш будет первым!