Поиск

2023 Fred Hersch & Esperanza Spalding - Alive at the Village Vanguard {Palmetto} [24-96]

2023 Fred Hersch & Esperanza Spalding - Alive at the Village Vanguard {Palmetto} [24-96]
Стили:
Дата издания диска:
6 января 2023
Издатель (лейбл):
Разрядность/ЧД:
24/96
Битрейт аудио:
lossless

Состав:
Доп. инфо:

Начав как музыкально одаренный ребенок, который в пять лет выступал с камерным музыкальным обществом штата Орегон, и получив более широкое признание как стенд-ап джазовый басист и как один из самых молодых преподавателей в истории своей альма-матер Berklee College of Music, Эсперанса Сполдинг теперь нацелилась на более сложный путь джазовой певицы. В этом предпандемическом дуэте в нью-йоркском клубе Village Vanguard, хорошо записанном выдающимся инженером Джеймсом Фарбером, Сполдинг и пианист Фред Херш начинают с песни Джорджа и Айры Гершвинов "But Not For Me". Пение Сполдинг игривое и воздушное, что, кажется, работает против нее, поскольку не добавляет ей ни глубины, ни артистизма. В кавер-версии песни Чарли Паркера "Little Suede Shoes" есть длинная интерлюдия пения скэт, но по ходу песни она становится больше болтушкой, чем стилистом, держащим ноты. Херш умело поддерживает ее во время беседы. После вступления, где он орнаментирует разрозненные бипы и бупы Сполдинга в "Evidence" Телониуса Монка, Херш начинает растягивать и играть скачкообразные, прекрасно гармонизированные линии. Он играет мягко и лирично в классической композиции Сэмми Кана/Джул Стайна "Some Other Time", где Сполдинг становится серьезным и переходит к пению. Alive - это еще один альбом в длинной традиции джазовых альбомов, записанных в этом легендарном клубе, увлекательный снимок Сполдинг в середине карьеры, которая видит возможности в гибриде джаза и разговорного слова, но остается сырой и неуверенной в поиске своего места на сцене.

Лог проверки качества
foobar2000 1.6.6 / Dynamic Range Meter 1.1.1
log date: 2023-01-06 10:04:48
--------------------------------------------------------------------------------
Analyzed: Fred Hersch & Esperanza Spalding / Alive at the Village Vanguard
--------------------------------------------------------------------------------
DR         Peak         RMS     Duration Track
--------------------------------------------------------------------------------
DR14      -0.30 dB   -17.51 dB      9:32 01-But Not for Me
DR13      -0.30 dB   -17.46 dB      7:36 02-Dream of Monk
DR13      -0.30 dB   -17.46 dB      9:03 03-Little Suede Shoes
DR13      -0.30 dB   -17.69 dB     12:03 04-Girl Talk
DR13      -0.30 dB   -17.41 dB      6:36 05-Evidence
DR14      -0.30 dB   -19.39 dB      8:30 06-Some Other Time
DR14      -0.30 dB   -17.43 dB      9:37 07-Loro
DR14      -0.30 dB   -19.66 dB      4:35 08-A Wish
--------------------------------------------------------------------------------
Number of tracks:  8
Official DR value: DR14
Samplerate:        96000 Hz
Channels:          2
Bits per sample:   24
Bitrate:           2345 kbps
Codec:             FLAC
================================================================================
Download available for power users only.
To become a power user - read FAQ.
10:40
104
Нет комментариев. Ваш будет первым!