Поиск

2023 Chihiro Yamanaka - Dolce Vita {Blue Note, UMG} [24-96]

2023 Chihiro Yamanaka - Dolce Vita {Blue Note, UMG} [24-96]
Стили:
Издатель (лейбл):
Носитель:
WEB
Формат:
PCM
Тип рипа:
tracks
Контейнер:
FLAC (*.flac)
Количество каналов:
2.0
Разрядность/ЧД:
24/96
Битрейт аудио:
lossless
Наличие сканов:
только обложка
Релизёр (источник):
Qobuz

This album is available on our DC++ hub: dc.pro-jazz.com
Этот альбом доступен на нашем DC++ хабе: dc.pro-jazz.com

01. Dolce Vita  03:37
02. To S.  04:26
03. Stranger  04:21
04. Yes Or No  04:36
05. Beauty And The Beast  04:57
06. Black Nile  03:33
07. Infant Eyes  04:56
08. Children Of The Night  04:27
09. Limbo  03:42
10. Adam's Apple  03:24
11. Footprints  03:41
12. One By One  03:59
13. Kimi Ni Mune Kyun  04:17
14. Andata  02:39

Состав:
  • Arranged By – Chihiro Yamanaka
  • Bass – Jennifer Vincent (треков: 1), Yoshi Waki (треков: 2 to 14)
  • Drums – John Davis (44) (треков: 4 to 14), LaFrae Olivia Sci (треков: 1 to 3)
  • Executive-Producer – Hajime Isogai
  • Mastered By – Greg Calbi
  • Piano, Electric Piano [Fender Rhodes], Organ [B-3] – Chihiro Yamanaka
  • Producer – Chihiro Yamanaka
  • Recorded By, Mixed By – Eric Elterman
Лог проверки качества
foobar2000 2.1.1 / Dynamic Range Meter 1.1.1
log date: 2024-02-27 21:46:15

--------------------------------------------------------------------------------
Analyzed: Chihiro Yamanaka / Dolce Vita
--------------------------------------------------------------------------------

DR         Peak         RMS     Duration Track
--------------------------------------------------------------------------------
DR10      -0.38 dB   -12.92 dB      3:38 01-Dolce Vita
DR11      -0.38 dB   -14.23 dB      4:26 02-To S.
DR13      -0.38 dB   -15.96 dB      4:22 03-Stranger
DR11      -0.38 dB   -12.97 dB      4:36 04-Yes Or No
DR11      -0.38 dB   -12.99 dB      4:57 05-Beauty And The Beast
DR11      -0.38 dB   -13.03 dB      3:34 06-Black Nile
DR14      -0.61 dB   -18.24 dB      4:57 07-Infant Eyes
DR10      -0.38 dB   -11.53 dB      4:28 08-Children Of The Night
DR11      -0.38 dB   -13.71 dB      3:43 09-Limbo
DR11      -0.38 dB   -12.90 dB      3:24 10-Adam's Apple
DR12      -0.38 dB   -14.81 dB      3:41 11-Footprints
DR11      -0.38 dB   -13.48 dB      4:00 12-One By One
DR12      -0.38 dB   -14.35 dB      4:18 13-Kimi Ni Mune Kyun
DR12      -1.40 dB   -15.41 dB      2:39 14-Andata
--------------------------------------------------------------------------------

Number of tracks:  14
Official DR value: DR11

Samplerate:        96000 Hz
Channels:          2
Bits per sample:   24
Bitrate:           2019 kbps
Codec:             FLAC
================================================================================
Приватный:
Да (DHT отключён)
Размер:
1.14 Гб (1,221,946,101 байт) » файлов: 17
Участники:
5 раздают, 0 качают (5 участников всего)
Внешние участники:
--- [ Обновить ]
23:08
139
Нет комментариев. Ваш будет первым!