Поиск

2023 Ada Morghe - Lost {Lalabeam} [24-96]

2023 Ada Morghe - Lost {Lalabeam} [24-96]
Носитель:
WEB
Формат:
PCM
Тип рипа:
tracks
Контейнер:
FLAC (*.flac)
Количество каналов:
2.0
Разрядность/ЧД:
24/96
Битрейт аудио:
lossless
Наличие сканов:
только обложка
Релизёр (источник):
Qobuz

This album is available on our DC++ hub:
Этот альбом доступен на нашем DC++ хабе:
dchub://hub.pro-jazz.com:7777

01. Prologue (1:26)
02. The Story (3:38)
03. Begins (1:29)
04. Water (5:46)
05. Flows (0:46)
06. Time Is Ours (3:30)
07. This Is Me (1:00)
08. Lost (4:39)
09. In Space (0:54)
10. Here Now (2:54)
11. Everything Is Everything (3:11)
12. Fire Calls (3:01)
13. At This Place (6:02)
14. We Are One (3:17)

Состав:
  • Ada Morghe
Лог проверки качества
foobar2000 1.6.6 / Dynamic Range Meter 1.1.1
log date: 2023-02-23 11:59:28
--------------------------------------------------------------------------------
Analyzed: Ada Morghe / Lost
--------------------------------------------------------------------------------
DR         Peak         RMS     Duration Track
--------------------------------------------------------------------------------
DR7       -0.10 dB   -12.12 dB      1:26 01-Prologue
DR6       -0.04 dB    -8.02 dB      3:38 02-The Story
DR10      -0.10 dB   -11.35 dB      1:29 03-Begins
DR6        0.00 dB    -7.92 dB      5:46 04-Water
DR11     -12.12 dB   -27.31 dB      0:46 05-Flows
DR8       -0.10 dB    -9.85 dB      3:30 06-Time Is Ours
DR7       -0.02 dB    -8.24 dB      1:00 07-This Is Me
DR6       -0.03 dB    -7.34 dB      4:39 08-Lost
DR13      -3.51 dB   -24.05 dB      0:54 09-In Space
DR11      -0.10 dB   -13.09 dB      2:54 10-Here Now
DR6       -0.05 dB    -7.89 dB      3:11 11-Everything Is Everything
DR7       -0.10 dB    -9.42 dB      3:01 12-Fire Calls
DR5       -0.09 dB    -8.36 dB      6:02 13-At This Place
DR5        0.00 dB    -6.69 dB      3:17 14-We Are One
--------------------------------------------------------------------------------
Number of tracks:  14
Official DR value: DR8
Samplerate:        96000 Hz
Channels:          2
Bits per sample:   24
Bitrate:           3250 kbps
Codec:             FLAC
================================================================================
Приватный:
Нет (DHT включён)
Размер:
913.19 Мб (957,553,955 байт) » файлов: 16
Участники:
0 раздают, 0 качают (0 участников всего)
Внешние участники:
--- [ Обновить ]
13:30
79
Нет комментариев. Ваш будет первым!