Поиск

2022 Uwe Steinmetz, Daniel Stickan - Deeper Standards {Odradek} [24-96]

2022 Uwe Steinmetz, Daniel Stickan - Deeper Standards {Odradek} [24-96]
Стили:
Дата издания диска:
14 января 2022
Носитель:
WEB
Формат:
PCM
Тип рипа:
tracks
Контейнер:
FLAC (*.flac)
Количество каналов:
2.0
Разрядность/ЧД:
24/96
Битрейт аудио:
lossless
Наличие сканов:
только обложка

01. De junge Wetfru  03:31
02. Wo die Nordseewellen  04:21
03. Hartleed  03:26
04. Leave Her Johnny  02:45
05. De Hamborger Veermaster  05:29
06. Öwer de stillen Straten  03:00
07. Abendfreden  05:04
08. Weegenlied  02:44
09. Die Moorsoldaten (prisoners' song from concentration camp Börgermoor)  04:59
10. Min Jehann  03:26
11. Dat du min Leevsten büst  03:58
12. Uun' e Doorung  04:14

Состав:
  • Uwe Steinmetz, saxophone, lyricon
  • Daniel Stickan, harmonium
Лог проверки качества
foobar2000 1.4.2 / Dynamic Range Meter 1.1.1
log date: 2022-01-15 16:56:23
--------------------------------------------------------------------------------
Analyzed: Uwe Steinmetz, Daniel Stickan / Deeper Standards
--------------------------------------------------------------------------------
DR         Peak         RMS     Duration Track
--------------------------------------------------------------------------------
DR8       -0.26 dB   -13.00 dB      3:32 01-De junge Wetfru
DR8       -0.26 dB   -11.92 dB      4:22 02-Wo die Nordseewellen
DR9       -0.26 dB   -12.60 dB      3:26 03-Hartleed
DR7       -0.26 dB   -10.66 dB      2:46 04-Leave Her Johnny
DR8       -0.26 dB   -11.45 dB      5:29 05-De Hamborger Veermaster
DR9       -0.26 dB   -12.17 dB      3:01 06-Г–wer de stillen Straten
DR7       -0.26 dB   -10.84 dB      5:05 07-Abendfreden
DR11      -6.24 dB   -21.84 dB      2:45 08-Weegenlied
DR9       -0.26 dB   -12.50 dB      4:59 09-Die Moorsoldaten (prisoners' song from concentration camp Börgermoor)
DR7       -0.26 dB    -9.54 dB      3:26 10-Min Jehann
DR9       -0.26 dB   -13.17 dB      3:58 11-Dat du min Leevsten bГјst
DR9       -0.26 dB   -13.25 dB      4:14 12-Uun' e Doorung
--------------------------------------------------------------------------------
Number of tracks:  12
Official DR value: DR8
Samplerate:        96000 Hz
Channels:          2
Bits per sample:   24
Bitrate:           2049 kbps
Codec:             FLAC
================================================================================
Приватный:
Нет (DHT включён)
Размер:
672.18 Мб (704,836,423 байт) » файлов: 13
Участники:
0 раздают, 0 качают (0 участников всего)
Внешние участники:
--- [ Обновить ]
22:24
288
Нет комментариев. Ваш будет первым!