Поиск

2022 Tim Berne & Gregg Belisle-Chi - Mars {Intakt} [24-48]

2022 Tim Berne & Gregg Belisle-Chi - Mars {Intakt} [24-48]
Дата записи диска:
15 мая 2021
Место записи:
Applehead Studio, Woodstock
Дата издания диска:
21 января 2022
Издатель (лейбл):
Номер по каталогу:
374
Носитель:
WEB
Формат:
PCM
Тип рипа:
tracks
Контейнер:
FLAC (*.flac)
Количество каналов:
2.0
Разрядность/ЧД:
24/48
Битрейт аудио:
lossless
Время звучания:
00:45:21
Наличие сканов:
только обложка

01. Rose Bowl Charade  05:16
02. Purdy  04:17
03. Gastrophobia  03:11
04. Microtuna  03:48
05. Frosty  04:04
06. Big Belly  03:43
07. Rabbit Girl  04:26
08. Palm Sweat  02:56
09. Dark Shadows  04:35
10. Not What You Think They Are  03:10
11. Middle Seat Blues  04:40
12. Giant Squids  00:56

Состав:
  •     Alto Saxophone – Tim Berne
  •     Arranged By – Gregg Belisle-Chi, Tim Berne
  •     Composed By [All Songs By] – Tim Berne
  •     Guitar – Gregg Belisle-Chi
  •     Liner Notes – David Torn
  •     Liner Notes [Quote] – Gustav Mahler
  •     Mixed By, Mastered By – David Torn
  •     Producer [Produced By] – Anja Illmaier, Florian Keller (5), Intakt Records, Patrik Landolt
  •     Producer [Recording Produced By] – David Torn
  •     Recorded By – Chris Bittner
Лог проверки качества
foobar2000 1.4.2 / Dynamic Range Meter 1.1.1
log date: 2022-01-19 09:57:47
--------------------------------------------------------------------------------
Analyzed: Tim Berne & Gregg Belisle-Chi / Mars
--------------------------------------------------------------------------------
DR         Peak         RMS     Duration Track
--------------------------------------------------------------------------------
DR9       -1.10 dB   -12.59 dB      5:15 01-Rose Bowl Charade
DR10      -1.10 dB   -14.79 dB      4:19 02-Purdy
DR11      -1.10 dB   -14.41 dB      3:14 03-Gastrophobia
DR8       -1.10 dB   -10.94 dB      3:50 04-Microtuna
DR8       -1.10 dB   -11.48 dB      4:07 05-Frosty
DR7       -1.10 dB   -10.89 dB      3:46 06-Big Belly
DR9       -1.10 dB   -13.29 dB      4:27 07-Rabbit Girl
DR9       -1.10 dB   -12.74 dB      3:00 08-Palm Sweat
DR11      -1.10 dB   -15.26 dB      4:36 09-Dark Shadows
DR10      -1.10 dB   -15.62 dB      3:10 10-Not What You Think They Are
DR10      -1.10 dB   -15.49 dB      4:40 11-Middle Seat Blues
DR11      -1.10 dB   -15.36 dB      0:57 12-Giant Squids
--------------------------------------------------------------------------------
Number of tracks:  12
Official DR value: DR10
Samplerate:        48000 Hz
Channels:          2
Bits per sample:   24
Bitrate:           1626 kbps
Codec:             FLAC
================================================================================
Приватный:
Нет (DHT включён)
Размер:
534.84 Мб (560,823,664 байт) » файлов: 13
Участники:
0 раздают, 0 качают (0 участников всего)
Внешние участники:
5 раздают, 2 качают (7 участников всего) [ Обновить ]
11:01
507
Нет комментариев. Ваш будет первым!