Поиск

2022 The Gil Evans Orchestra - Live at Fabrik Hamburg 1986 {Jazzline} [24-48]

2022 The Gil Evans Orchestra - Live at Fabrik Hamburg 1986 {Jazzline} [24-48]
Стили:
Битрейт аудио:
lossless

Состав:
Лог проверки качества
foobar2000 1.4.3 / Dynamic Range Meter 1.1.1
log date: 2022-04-09 08:03:58
--------------------------------------------------------------------------------
Analyzed: The Gil Evans Orchestra / Live at Fabrik Hamburg 1986
--------------------------------------------------------------------------------
DR         Peak         RMS     Duration Track
--------------------------------------------------------------------------------
DR10      -1.10 dB   -13.32 dB     20:07 01-Stone Free (Live)
DR11      -1.10 dB   -14.94 dB     10:16 02-Up From The Skies (Live)
DR10      -1.10 dB   -14.14 dB     18:28 03-Little Wing (Live)
DR11      -1.10 dB   -14.26 dB     23:53 04-Subway (Live)
DR10      -1.10 dB   -12.96 dB     23:33 05-There Comes A Time & Birdland (Live)
DR11      -1.15 dB   -16.10 dB      8:34 06-Sometimes (Live)
DR9       -1.10 dB   -11.69 dB      8:55 07-Voodoo Chile (Live)
DR10      -1.10 dB   -12.93 dB     17:12 08-Orgone (Live)
--------------------------------------------------------------------------------
Number of tracks:  8
Official DR value: DR10
Samplerate:        48000 Hz
Channels:          2
Bits per sample:   24
Bitrate:           1731 kbps
Codec:             FLAC
================================================================================
Скачивание доступно после регистрации!!
Приватный:
Нет (DHT включён)
Размер:
1.55 Гб (1,668,200,080 байт) » файлов: 12
Участники:
0 раздают, 0 качают (0 участников всего)
Внешние участники:
5 раздают, 2 качают (7 участников всего) [ Обновить ]
23:34
389
Нет комментариев. Ваш будет первым!