Поиск

2022 SvanZini - North {Who Went Where} [24-48]

2022 SvanZini - North {Who Went Where} [24-48]
Дата издания диска:
28 января 2022
Носитель:
WEB
Формат:
PCM
Тип рипа:
tracks
Контейнер:
FLAC (*.flac)
Количество каналов:
2.0
Разрядность/ЧД:
24/48
Битрейт аудио:
lossless
Наличие сканов:
только обложка

01. North  02:57
02. North East  05:58
03. North West  02:34
04. South East  04:12
05. South  04:03
06. South West  02:49
07. East  03:18
08. East West  08:48
09. West  03:29
10. West South West  04:34
11. East South East  04:05

Лог проверки качества
foobar2000 1.4.2 / Dynamic Range Meter 1.1.1
log date: 2022-02-03 17:36:39
--------------------------------------------------------------------------------
Analyzed: SvanZini / North
--------------------------------------------------------------------------------
DR         Peak         RMS     Duration Track
--------------------------------------------------------------------------------
DR8       -3.24 dB   -12.97 dB      2:58 01-North
DR8       -4.15 dB   -12.89 dB      5:58 02-North East
DR7       -4.92 dB   -13.06 dB      2:34 03-North West
DR8       -4.15 dB   -13.52 dB      4:12 04-South East
DR8       -4.15 dB   -13.17 dB      4:03 05-South
DR8       -4.15 dB   -13.69 dB      2:50 06-South West
DR7       -4.15 dB   -13.22 dB      3:19 07-East
DR7       -4.06 dB   -13.68 dB      8:49 08-East West
DR7       -4.15 dB   -12.37 dB      3:29 09-West
DR7       -5.68 dB   -13.75 dB      4:34 10-West South West
DR7       -4.72 dB   -12.79 dB      4:05 11-East South East
--------------------------------------------------------------------------------
Number of tracks:  11
Official DR value: DR7
Samplerate:        48000 Hz
Channels:          2
Bits per sample:   24
Bitrate:           1704 kbps
Codec:             FLAC
================================================================================
Приватный:
Нет (DHT включён)
Размер:
539.98 Мб (566,208,514 байт) » файлов: 12
Участники:
0 раздают, 0 качают (0 участников всего)
Внешние участники:
5 раздают, 1 качают (6 участников всего) [ Обновить ]
10:37
353
Нет комментариев. Ваш будет первым!