Поиск

2022 Silvia Manco - Jazz (Bossa and Samba Vibes) {Primrose Music} [24-44.1]

2022 Silvia Manco - Jazz (Bossa and Samba Vibes) {Primrose Music} [24-44.1]
Стили:
Дата издания диска:
10 мая 2022
Носитель:
WEB
Формат:
PCM
Тип рипа:
tracks
Контейнер:
FLAC (*.flac)
Количество каналов:
2.0
Разрядность/ЧД:
24/44,1
Битрейт аудио:
lossless
Наличие сканов:
только обложка

Треклист:

01 - Bossa and Samba Vibes 02:40
02 - Bossa Nova Seaside 02:52
03 - Smooth Bossa Nova 03:42
04 - Samba for Marcos 02:19
05 - Bossa Nova Beach 02:50
06 - Samba Vida Nova 02:21
07 - Samba de Domingo 03:19
08 - Samba Jazz 02:16
09 - Bossa Nova Is in the Air 02:58

Состав:
  • Silvia Manco — piano, vocals
Лог проверки качества
foobar2000 1.4.3 / Dynamic Range Meter 1.1.1
log date: 2022-05-13 22:46:50
--------------------------------------------------------------------------------
Analyzed: Silvia Manco / Jazz (Bossa and Samba Vibes)
--------------------------------------------------------------------------------
DR         Peak         RMS     Duration Track
--------------------------------------------------------------------------------
DR10      -0.23 dB   -11.17 dB      2:41 01-Bossa and Samba Vibes
DR10      -0.26 dB   -12.20 dB      2:52 02-Bossa Nova Seaside
DR8       -0.24 dB   -10.18 dB      3:43 03-Smooth Bossa Nova
DR8       -0.26 dB    -9.84 dB      2:19 04-Samba for Marcos
DR9       -0.25 dB   -11.07 dB      2:50 05-Bossa Nova Beach
DR8       -0.18 dB   -10.34 dB      2:21 06-Samba Vida Nova
DR9       -0.24 dB   -10.46 dB      3:20 07-Samba de Domingo
DR8       -0.22 dB    -9.78 dB      2:17 08-Samba Jazz
DR9       -0.26 dB   -11.85 dB      2:58 09-Bossa Nova Is in the Air
--------------------------------------------------------------------------------
Number of tracks:  9
Official DR value: DR9
Samplerate:        44100 Hz
Channels:          2
Bits per sample:   24
Bitrate:           1518 kbps
Codec:             FLAC
================================================================================
17:54
264
Нет комментариев. Ваш будет первым!