Поиск

2022 Robert Glasper - Black Radio III {Loma Vista, Universal} [CD]

2022 Robert Glasper - Black Radio III {Loma Vista, Universal} [CD]
Стили:
Дата издания диска:
25 февраля 2022
Издатель (лейбл):
Номер по каталогу:
UCCO-1234
Носитель:
CD
Тип рипа:
tracks
Аудиокодек:
FLAC (*.flac)
Битрейт аудио:
lossless
Время звучания:
01:13:37
Наличие сканов:
только обложка

Треклист:

01. In Tune (feat. Amir Sulaiman) (3:19)
02. Black Superhero (feat. Killer Mike, BJ The Chicago Kid, & Big K.R.I.T.) (5:56)
03. Shine (feat. D Smoke & Tiffany Gouche) (6:29)
04. Why We Speak (feat. Q-Tip & Esperanza Spalding) (6:19)
05. Over (feat. Yebba) (4:56)
06. Better Than I Imagined (feat. H.E.R. & Meshell Ndegeocello) (4:52)
07. Everybody Wants to Rule the World (feat. Lalah Hathaway & Common) (5:42)
08. Everybody Love (feat. Musiq Soulchild & Posdnous) (5:03)
09. It Don't Matter (feat. Gregory Porter & Ledisi) (5:27)
10. Heaven's Here (feat. Ant Clemons) (3:57)
11. Out of My Hands (feat. Jennifer Hudson) (5:36)
12. Forever (feat. PJ Morton & India.Arie) (5:46)
13. Bright Lights (feat. Ty Dolla $ign) (4:02)
14. Better Than I Imagined (Instrumental) (4:20)
15. Easy to See (feat. BJ The Chicago Kid) (1:53)

Состав:
  • Robert Glasper (keys, p, Rhodes, ds)
  • Derrick Hodge (b, strings) Burniss Travis II (b) Pino Palladino (b) Thaddaeus Tribbett (b)
  • Chris Dave (ds) Justin Tyson (ds, key) Jahi Sundance (turntables) DJ Jazzy Jeff (turntables)
  • Cory Henry (organ) Bryan-Michael Cox (synths) Isaiah Sharkey (g) Marlon Williams (g) Terrace Martin (sax,synths) Keyon Harrold (tp)
  • Marcus Strickland (b-cl)
  • Christian Scott aTunde Adjuah (spoken word)
  • Produced by Robert Glasper
Лог создания рипа
X Lossless Decoder version 20211018 (154.0)
XLD extraction logfile from 2022-03-02 15:08:06 -0800
Robert Glasper / Black Radio III
Used drive : PLEXTOR BDDVDR PX-B310U (revision 1.07)
Media type : Pressed CD
Ripper mode             : XLD Secure Ripper
Disable audio cache     : OK for the drive with a cache less than 1375KiB
Make use of C2 pointers : NO
Read offset correction  : 6
Max retry count         : 100
Gap status              : Analyzed, Appended (except HTOA)
TOC of the extracted CD
     Track |   Start  |  Length  | Start sector | End sector
    ---------------------------------------------------------
        1  | 00:00:00 | 03:18:52 |         0    |    14901
        2  | 03:18:52 | 05:55:54 |     14902    |    41580
        3  | 09:14:31 | 06:28:42 |     41581    |    70722
        4  | 15:42:73 | 06:19:16 |     70723    |    99163
        5  | 22:02:14 | 04:55:56 |     99164    |   121344
        6  | 26:57:70 | 04:51:46 |    121345    |   143215
        7  | 31:49:41 | 05:41:43 |    143216    |   168833
        8  | 37:31:09 | 05:03:12 |    168834    |   191570
        9  | 42:34:21 | 05:27:01 |    191571    |   216096
       10  | 48:01:22 | 03:57:00 |    216097    |   233871
       11  | 51:58:22 | 05:35:40 |    233872    |   259036
       12  | 57:33:62 | 05:45:51 |    259037    |   284962
       13  | 63:19:38 | 04:02:13 |    284963    |   303125
       14  | 67:21:51 | 04:20:27 |    303126    |   322652
       15  | 71:42:03 | 01:53:14 |    322653    |   331141
AccurateRip Summary
    Disc not found in AccurateRip DB.
All Tracks
    Album gain               : -9.75 dB
    Peak                     : 0.997620
    Statistics
        Read error                           : 0
        Jitter error (maybe fixed)           : 0
        Retry sector count                   : 0
        Damaged sector count                 : 0
Track 01
    Filename : /Users/Shared/Robert Glasper - Black Radio III (2022) [FLAC] {Japan Edition}/01 - In Tune (feat. Amir Sulaiman).flac
    Pre-gap length : 00:02:00
    Track gain               : -8.10 dB
    Peak                     : 0.967316
    CRC32 hash (test run)    : 7F5B7A0E
    CRC32 hash               : 7F5B7A0E
    CRC32 hash (skip zero)   : 39066B59
    AccurateRip v1 signature : 1184DA28
    AccurateRip v2 signature : 8C3A18E0
        ->Track not present in AccurateRip database.
    Statistics
        Read error                           : 0
        Jitter error (maybe fixed)           : 0
        Retry sector count                   : 0
        Damaged sector count                 : 0
Track 02
    Filename : /Users/Shared/Robert Glasper - Black Radio III (2022) [FLAC] {Japan Edition}/02 - Black Superhero (feat. Killer Mike, BJ The Chicago Kid, & Big K.R.I.T.).flac
    Track gain               : -9.86 dB
    Peak                     : 0.997620
    CRC32 hash (test run)    : 4DFDD443
    CRC32 hash               : 4DFDD443
    CRC32 hash (skip zero)   : 4A799A0C
    AccurateRip v1 signature : 9F65CE9D
    AccurateRip v2 signature : 3B86F34D
        ->Track not present in AccurateRip database.
    Statistics
        Read error                           : 0
        Jitter error (maybe fixed)           : 0
        Retry sector count                   : 0
        Damaged sector count                 : 0
Track 03
    Filename : /Users/Shared/Robert Glasper - Black Radio III (2022) [FLAC] {Japan Edition}/03 - Shine (feat. D Smoke & Tiffany Gouche).flac
    Track gain               : -10.43 dB
    Peak                     : 0.986694
    CRC32 hash (test run)    : 28DA0785
    CRC32 hash               : 28DA0785
    CRC32 hash (skip zero)   : F6F5F6B9
    AccurateRip v1 signature : 42CC4BF2
    AccurateRip v2 signature : DA55D083
        ->Track not present in AccurateRip database.
    Statistics
        Read error                           : 0
        Jitter error (maybe fixed)           : 0
        Retry sector count                   : 0
        Damaged sector count                 : 0
Track 04
    Filename : /Users/Shared/Robert Glasper - Black Radio III (2022) [FLAC] {Japan Edition}/04 - Why We Speak (feat. Q-Tip & Esperanza Spalding).flac
    Track gain               : -9.83 dB
    Peak                     : 0.991669
    CRC32 hash (test run)    : F6B246B4
    CRC32 hash               : F6B246B4
    CRC32 hash (skip zero)   : E02C73DB
    AccurateRip v1 signature : 9FA1D5CB
    AccurateRip v2 signature : 5F12B49C
        ->Track not present in AccurateRip database.
    Statistics
        Read error                           : 0
        Jitter error (maybe fixed)           : 0
        Retry sector count                   : 0
        Damaged sector count                 : 0
Track 05
    Filename : /Users/Shared/Robert Glasper - Black Radio III (2022) [FLAC] {Japan Edition}/05 - Over (feat. Yebba).flac
    Track gain               : -9.98 dB
    Peak                     : 0.978607
    CRC32 hash (test run)    : 5896EFDE
    CRC32 hash               : 5896EFDE
    CRC32 hash (skip zero)   : 27C8C8B8
    AccurateRip v1 signature : 2B624160
    AccurateRip v2 signature : B43C641D
        ->Track not present in AccurateRip database.
    Statistics
        Read error                           : 0
        Jitter error (maybe fixed)           : 0
        Retry sector count                   : 0
        Damaged sector count                 : 0
Track 06
    Filename : /Users/Shared/Robert Glasper - Black Radio III (2022) [FLAC] {Japan Edition}/06 - Better Than I Imagined (feat. HER & Meshell Ndegeocello).flac
    Track gain               : -8.57 dB
    Peak                     : 0.995087
    CRC32 hash (test run)    : 45025908
    CRC32 hash               : 45025908
    CRC32 hash (skip zero)   : 2E184C80
    AccurateRip v1 signature : 191B67FB
    AccurateRip v2 signature : BD03BB8D
        ->Track not present in AccurateRip database.
    Statistics
        Read error                           : 0
        Jitter error (maybe fixed)           : 0
        Retry sector count                   : 0
        Damaged sector count                 : 0
Track 07
    Filename : /Users/Shared/Robert Glasper - Black Radio III (2022) [FLAC] {Japan Edition}/07 - Everybody Wants To Rule The World (feat. Lalah Hathaway & Common).flac
    Track gain               : -10.26 dB
    Peak                     : 0.995758
    CRC32 hash (test run)    : 7D4FEFA3
    CRC32 hash               : 7D4FEFA3
    CRC32 hash (skip zero)   : 3436A062
    AccurateRip v1 signature : FFEBF61D
    AccurateRip v2 signature : F40CE87E
        ->Track not present in AccurateRip database.
    Statistics
        Read error                           : 0
        Jitter error (maybe fixed)           : 0
        Retry sector count                   : 0
        Damaged sector count                 : 0
Track 08
    Filename : /Users/Shared/Robert Glasper - Black Radio III (2022) [FLAC] {Japan Edition}/08 - Everybody Love (feat. Musiq Soulchild & Posdnous).flac
    Track gain               : -9.37 dB
    Peak                     : 0.978333
    CRC32 hash (test run)    : C944B8F2
    CRC32 hash               : C944B8F2
    CRC32 hash (skip zero)   : 9851220E
    AccurateRip v1 signature : 2742C23D
    AccurateRip v2 signature : F29E5216
        ->Track not present in AccurateRip database.
    Statistics
        Read error                           : 0
        Jitter error (maybe fixed)           : 0
        Retry sector count                   : 0
        Damaged sector count                 : 0
Track 09
    Filename : /Users/Shared/Robert Glasper - Black Radio III (2022) [FLAC] {Japan Edition}/09 - It Don't Matter (feat. Gregory Porter & Ledisi).flac
    Track gain               : -9.24 dB
    Peak                     : 0.977417
    CRC32 hash (test run)    : C16DB235
    CRC32 hash               : C16DB235
    CRC32 hash (skip zero)   : C31F7E9C
    AccurateRip v1 signature : 96484E8E
    AccurateRip v2 signature : 89DCCDE4
        ->Track not present in AccurateRip database.
    Statistics
        Read error                           : 0
        Jitter error (maybe fixed)           : 0
        Retry sector count                   : 0
        Damaged sector count                 : 0
Track 10
    Filename : /Users/Shared/Robert Glasper - Black Radio III (2022) [FLAC] {Japan Edition}/10 - Heaven's Here (feat. Ant Clemons).flac
    Track gain               : -10.31 dB
    Peak                     : 0.976868
    CRC32 hash (test run)    : B6D1DD58
    CRC32 hash               : B6D1DD58
    CRC32 hash (skip zero)   : E99786AA
    AccurateRip v1 signature : 0306D8C6
    AccurateRip v2 signature : 826017F8
        ->Track not present in AccurateRip database.
    Statistics
        Read error                           : 0
        Jitter error (maybe fixed)           : 0
        Retry sector count                   : 0
        Damaged sector count                 : 0
Track 11
    Filename : /Users/Shared/Robert Glasper - Black Radio III (2022) [FLAC] {Japan Edition}/11 - Out of My Hands (feat. Jennifer Hudson).flac
    Track gain               : -9.46 dB
    Peak                     : 0.980164
    CRC32 hash (test run)    : 5C3DBD2F
    CRC32 hash               : 5C3DBD2F
    CRC32 hash (skip zero)   : A1AC5227
    AccurateRip v1 signature : 57582340
    AccurateRip v2 signature : E9ADEF1A
        ->Track not present in AccurateRip database.
    Statistics
        Read error                           : 0
        Jitter error (maybe fixed)           : 0
        Retry sector count                   : 0
        Damaged sector count                 : 0
Track 12
    Filename : /Users/Shared/Robert Glasper - Black Radio III (2022) [FLAC] {Japan Edition}/12 - Forever (feat. PJ Morton & India.Arie).flac
    Track gain               : -10.86 dB
    Peak                     : 0.988678
    CRC32 hash (test run)    : 9C082E07
    CRC32 hash               : 9C082E07
    CRC32 hash (skip zero)   : 49C1C25D
    AccurateRip v1 signature : 7E30D019
    AccurateRip v2 signature : 7D5603A3
        ->Track not present in AccurateRip database.
    Statistics
        Read error                           : 0
        Jitter error (maybe fixed)           : 0
        Retry sector count                   : 0
        Damaged sector count                 : 0
Track 13
    Filename : /Users/Shared/Robert Glasper - Black Radio III (2022) [FLAC] {Japan Edition}/13 - Bright Lights (feat. Ty Dolla $ign).flac
    Track gain               : -9.96 dB
    Peak                     : 0.994171
    CRC32 hash (test run)    : EBB6793A
    CRC32 hash               : EBB6793A
    CRC32 hash (skip zero)   : C00D2F9E
    AccurateRip v1 signature : 099E7AF9
    AccurateRip v2 signature : 871A3A30
        ->Track not present in AccurateRip database.
    Statistics
        Read error                           : 0
        Jitter error (maybe fixed)           : 0
        Retry sector count                   : 0
        Damaged sector count                 : 0
Track 14
    Filename : /Users/Shared/Robert Glasper - Black Radio III (2022) [FLAC] {Japan Edition}/14 - Better Than I Imagined (Instrumental).flac
    Track gain               : -7.31 dB
    Peak                     : 0.996429
    CRC32 hash (test run)    : 5A917A6F
    CRC32 hash               : 5A917A6F
    CRC32 hash (skip zero)   : 3BBDD930
    AccurateRip v1 signature : E816A845
    AccurateRip v2 signature : 25E09F5A
        ->Track not present in AccurateRip database.
    Statistics
        Read error                           : 0
        Jitter error (maybe fixed)           : 0
        Retry sector count                   : 0
        Damaged sector count                 : 0
Track 15
    Filename : /Users/Shared/Robert Glasper - Black Radio III (2022) [FLAC] {Japan Edition}/15 - Easy To See (feat. BJ The Chicago Kid).flac
    Track gain               : -10.25 dB
    Peak                     : 0.984436
    CRC32 hash (test run)    : A98A9EA6
    CRC32 hash               : A98A9EA6
    CRC32 hash (skip zero)   : 3AB36118
    AccurateRip v1 signature : C709CF42
    AccurateRip v2 signature : 1102C854
        ->Track not present in AccurateRip database.
    Statistics
        Read error                           : 0
        Jitter error (maybe fixed)           : 0
        Retry sector count                   : 0
        Damaged sector count                 : 0
No errors occurred
End of status report
-----BEGIN XLD SIGNATURE-----
kA1peY36HVOXbQpb77X8uofZWHUFTnik7hrC3sbD817cVtmAIfIP_dR.n.DhcO0zYNzIu_g5yEE9q9FEvM1JuaoQtsk8BycEhRAdSje
-----END XLD SIGNATURE-----
По всем вопросам пишите личное сообщение пользователю M0p94ok.
14:29
189
Нет комментариев. Ваш будет первым!