Поиск

2022 Gumpi Falcon - D-fusion {GFM Media} [24-48]

2022 Gumpi Falcon - D-fusion {GFM Media} [24-48]
Дата издания диска:
4 февраля 2022
Носитель:
WEB
Формат:
PCM
Тип рипа:
tracks
Контейнер:
FLAC (*.flac)
Количество каналов:
2.0
Разрядность/ЧД:
24/48
Битрейт аудио:
lossless
Наличие сканов:
только обложка

01. D-fusion  04:40
02. Inspirado  04:23
03. Anoche (Last Night)  05:10
04. Hold the Methane  03:31
05. Flight of Fancy  04:40
06. Flamingos in the Mist  03:54
07. What If?  04:25
08. Circles  04:52
09. In the Hunt  04:46
10. Annie Lissette  04:04
11. Pharaoh King Suite  08:45

Состав:
  • Gumpi Falcon: Guitar, bass, keyboard and percussion. Also drum sequences on 6, 9, and 10.
  • Tony Escapa: Drums on 1, 4, 5, 8, and 11. Also congas on 5.
  • Jose Javier Freire: Drums on 2 and 7.
  • Jorge Del Valle (Moumusic): Piano and Rhodes solo on 3.
Лог проверки качества
foobar2000 1.4.2 / Dynamic Range Meter 1.1.1
log date: 2022-02-08 06:19:31
--------------------------------------------------------------------------------
Analyzed: Gumpi Falcon / D-fusion
--------------------------------------------------------------------------------
DR         Peak         RMS     Duration Track
--------------------------------------------------------------------------------
DR10      -1.08 dB   -12.64 dB      4:40 01-D-fusion
DR9       -0.40 dB   -10.53 dB      4:23 02-Inspirado
DR10      -1.00 dB   -12.34 dB      5:10 03-Anoche (Last Night)
DR9       -0.50 dB   -10.52 dB      3:31 04-Hold the Methane
DR11      -1.00 dB   -12.91 dB      4:40 05-Flight of Fancy
DR11      -1.00 dB   -13.50 dB      3:55 06-Flamingos in the Mist
DR9       -1.00 dB   -11.40 dB      4:26 07-What If?
DR11      -0.70 dB   -13.16 dB      4:53 08-Circles
DR10      -1.00 dB   -13.40 dB      4:46 09-In the Hunt
DR9       -1.00 dB   -11.56 dB      4:05 10-Annie Lissette
DR10      -0.10 dB   -13.61 dB      8:45 11-Pharaoh King Suite
--------------------------------------------------------------------------------
Number of tracks:  11
Official DR value: DR10
Samplerate:        48000 Hz
Channels:          2
Bits per sample:   24
Bitrate:           1760 kbps
Codec:             FLAC
================================================================================
23:23
358
Нет комментариев. Ваш будет первым!