Поиск

2022 François Richard - Andromede 2 (Jazz Flute) {Cmfr} [24-96]

2022 François Richard - Andromede 2 (Jazz Flute) {Cmfr} [24-96]
Стили:
Носитель:
WEB
Формат:
PCM
Тип рипа:
tracks
Контейнер:
FLAC (*.flac)
Количество каналов:
2.0
Разрядность/ЧД:
24/96
Битрейт аудио:
lossless
Наличие сканов:
только обложка

01. «spaceship» Vol. #1 Andromede (04:28)
02. Stratosphere - Emotion (03:01)
03. Le jongleur «off broadway» (06:02)
04. Exosphere -sospace (03:55)
05. Mémoires de la terre (04:55)
06. Past the Milky Way (03:38)
07. 3 Minute Space Transition (03:03)
08. Arioso jazzé pour flûte (05:44)
09. Planète imaginaire (05:01)
10. Les pharaons-symphonerto 3E mouvement (05:09)
11. Ballade lointaine (06:59)

Состав:
  • François Richard — Flute
Лог проверки качества
foobar2000 1.4.2 / Dynamic Range Meter 1.1.1
log date: 2022-01-10 08:20:13
--------------------------------------------------------------------------------
Analyzed: François Richard / Andromede 2
--------------------------------------------------------------------------------
DR         Peak         RMS     Duration Track
--------------------------------------------------------------------------------
DR12      -0.33 dB   -15.37 dB      4:29 01-«spaceship» Vol. #1 Andromede
DR10      -3.75 dB   -17.04 dB      3:02 02-Stratosphere - Emotion
DR12      -0.02 dB   -15.13 dB      6:02 03-Le jongleur «off broadway»
DR12      -0.04 dB   -17.62 dB      3:55 04-Exosphere -sospace
DR13      -0.13 dB   -14.77 dB      4:55 05-Mémoires de la terre
DR13      -0.81 dB   -18.18 dB      3:39 06-Past the Milky Way
DR11      -0.70 dB   -14.36 dB      3:04 07-3 Minute Space Transition
DR13      -0.08 dB   -16.46 dB      5:45 08-Arioso jazzé pour flûte
DR11      -1.08 dB   -16.44 dB      5:01 09-Planète imaginaire
DR13      -0.01 dB   -15.87 dB      5:10 10-Les pharaons-symphonerto 3E mouvement
DR12      -3.18 dB   -19.73 dB      6:59 11-Ballade lointaine
--------------------------------------------------------------------------------
Number of tracks:  11
Official DR value: DR12
Samplerate:        96000 Hz
Channels:          2
Bits per sample:   24
Bitrate:           2711 kbps
Codec:             FLAC
================================================================================
Приватный:
Нет (DHT включён)
Размер:
1.08 Гб (1,161,113,148 байт) » файлов: 12
Участники:
0 раздают, 0 качают (0 участников всего)
Внешние участники:
5 раздают, 2 качают (7 участников всего) [ Обновить ]
10:21
266
Нет комментариев. Ваш будет первым!