Поиск

2022 Dutch Swing College Band - Dutch Swing College Band 75 {DSCMUSIC} [24-48]

2022 Dutch Swing College Band - Dutch Swing College Band 75 {DSCMUSIC} [24-48]
Стили:
Дата издания диска:
7 января 2022
Носитель:
WEB
Формат:
PCM
Тип рипа:
tracks
Контейнер:
FLAC (*.flac)
Количество каналов:
2.0
Разрядность/ЧД:
24/48
Битрейт аудио:
lossless
Время звучания:
00:46:17
Наличие сканов:
только обложка

01. 2020 Rag  02:54
02. Lulu's Back in Town  03:56
03. Aunt Hagar's Blues  04:13
04. Oriental Strut  02:52
05. Rent Party Blues  04:01
06. Darktown Strutters Ball  02:34
07. The Eel  02:48
08. Shim-me-sha-wabble  03:16
09. Lazy Mood  03:53
10. Charleston  02:41
11. Quincy Street Stomp  03:44
12. The Mooche  03:42
13. Georgia Swing  02:35
14. Tiger Rag  03:01

Лог проверки качества
foobar2000 1.4.2 / Dynamic Range Meter 1.1.1
log date: 2022-01-08 22:39:55
--------------------------------------------------------------------------------
Analyzed: The Dutch Swing College Band / Dutch Swing College Band 75
--------------------------------------------------------------------------------
DR         Peak         RMS     Duration Track
--------------------------------------------------------------------------------
DR14      -1.00 dB   -17.47 dB      2:55 01-2020 Rag
DR15      -0.98 dB   -17.99 dB      3:56 02-Lulu's Back in Town
DR14      -1.00 dB   -16.79 dB      4:14 03-Aunt Hagar's Blues
DR15      -1.00 dB   -18.11 dB      2:52 04-Oriental Strut
DR14      -1.56 dB   -18.53 dB      4:02 05-Rent Party Blues
DR13      -0.98 dB   -16.26 dB      2:35 06-Darktown Strutters Ball
DR13      -0.99 dB   -16.59 dB      2:48 07-The Eel
DR14      -0.98 dB   -17.47 dB      3:16 08-Shim-me-sha-wabble
DR13      -3.09 dB   -20.87 dB      3:53 09-Lazy Mood
DR15      -1.09 dB   -18.37 dB      2:42 10-Charleston
DR14      -0.97 dB   -17.27 dB      3:45 11-Quincy Street Stomp
DR13      -2.83 dB   -19.49 dB      3:43 12-The Mooche
DR14      -1.00 dB   -16.52 dB      2:35 13-Georgia Swing
DR14      -1.00 dB   -16.41 dB      3:02 14-Tiger Rag
--------------------------------------------------------------------------------
Number of tracks:  14
Official DR value: DR14
Samplerate:        48000 Hz
Channels:          2
Bits per sample:   24
Bitrate:           1666 kbps
Codec:             FLAC
================================================================================
Приватный:
Нет (DHT включён)
Размер:
526.78 Мб (552,369,832 байт) » файлов: 15
Участники:
1 раздают, 0 качают (1 участников всего)
Внешние участники:
3 раздают, 1 качают (4 участников всего) [ Обновить ]
20:59
282
Нет комментариев. Ваш будет первым!