Поиск

2022 Dieter Ilg - Dedication {ACT Music} [24-48]

2022 Dieter Ilg - Dedication {ACT Music} [24-48]
Стили:
Дата записи диска:
24 октября - 25 октября 2020
Место записи:
SWR-Studio, Baden-Baden
Дата издания диска:
28 января 2022
Издатель (лейбл):
Носитель:
WEB
Формат:
PCM
Тип рипа:
tracks
Контейнер:
FLAC (*.flac)
Количество каналов:
2.0
Разрядность/ЧД:
24/48
Битрейт аудио:
lossless
Время звучания:
00:36:20
Наличие сканов:
буклет pdf

01. Rochade (04:44)
02. Altes Land (03:53)
03. Wupp (02:09)
04. Diversity (02:30)
05. Path-26 (02:16)
06. Forest Kill (02:31)
07. Fernweh (02:47)
08. Hamami (03:00)
09. Erlösung (04:43)
10. Punk.t (01:20)
11. Schöne Neue Welt (04:09)
12. No Manipulation, No Corruption (02:18)

Rochade вдохновлена скрипичной сонатой № 1 соль минор Иоганна Себастьяна Баха
Altes Land вдохновлена песней Нэта Аддерли The Old Country
Path-26 вдохновлена сонатой для фортепиано "Патетическая" № 8 до минор Людвига ван Бетховена

Состав:
  • Dieter Ilg — double bass
  • Recorded and mixed by Manfred Seiler
  • Mastered by Klaus Scheuermann
  • Produced by Dieter Ilg in cooperation with SWR
Лог проверки качества
foobar2000 1.6.9 / Dynamic Range Meter 1.1.1
log date: 2022-01-26 07:40:25
--------------------------------------------------------------------------------
Analyzed: Dieter Ilg / Dedication
--------------------------------------------------------------------------------
DR         Peak         RMS     Duration Track
--------------------------------------------------------------------------------
DR9       -0.72 dB   -13.23 dB      4:44 01-Rochade
DR9       -0.72 dB   -13.66 dB      3:53 02-Altes Land
DR9       -0.72 dB   -13.39 dB      2:10 03-Wupp
DR10      -0.72 dB   -13.20 dB      2:30 04-Diversity
DR8       -0.72 dB   -12.68 dB      2:17 05-Path-26
DR9       -0.72 dB   -13.31 dB      2:31 06-Forest Kill
DR8       -0.72 dB   -13.41 dB      2:48 07-Fernweh
DR10      -0.72 dB   -13.42 dB      3:00 08-Hamami
DR11      -0.72 dB   -16.35 dB      4:44 09-Erlösung
DR8       -0.71 dB   -12.07 dB      1:20 10-Punk.t
DR10      -0.72 dB   -14.96 dB      4:10 11-Schöne Neue Welt
DR11      -0.72 dB   -15.04 dB      2:18 12-No Manipulation, No Corruption
--------------------------------------------------------------------------------
Number of tracks:  12
Official DR value: DR9
Samplerate:        48000 Hz
Channels:          2
Bits per sample:   24
Bitrate:           1135 kbps
Codec:             FLAC
================================================================================
Приватный:
Нет (DHT включён)
Размер:
332.65 Мб (348,811,361 байт) » файлов: 15
Участники:
0 раздают, 0 качают (0 участников всего)
Внешние участники:
--- [ Обновить ]
09:46
310
Нет комментариев. Ваш будет первым!