Поиск

2022 Anthony Tropea - 项目 :十万 Project : 100000 {Creative} [24-48]

2022 Anthony Tropea - 项目 :十万 Project : 100000 {Creative} [24-48]
Стили:
Дата издания диска:
1 февраля 2022
Носитель:
WEB
Формат:
PCM
Тип рипа:
tracks
Контейнер:
FLAC (*.flac)
Количество каналов:
2.0
Разрядность/ЧД:
24/48
Битрейт аудио:
lossless
Наличие сканов:
только обложка

Треклист:

1. Beautiful 美 (feat. 赵濛, 李伟乐, 张添一 & 杨宸)  10:08
2. The Vertical Garden 垂直花园 (feat. 赵濛, 李伟乐, 张添一 & 杨宸)  08:45
3. Water Travel 水之旅 (feat. 赵濛, 李伟乐, 张添一 & 杨宸)  11:06
4. Moments of You, With I 你与我的瞬间 (feat. 赵濛, 李伟乐, 张添一 & 杨宸)  06:34

 

Лог проверки качества
foobar2000 1.4.2 / Dynamic Range Meter 1.1.1
log date: 2022-02-02 15:49:06
--------------------------------------------------------------------------------
Analyzed: Anthony Tropea / 项目 :十万 Project : 100000
--------------------------------------------------------------------------------
DR         Peak         RMS     Duration Track
--------------------------------------------------------------------------------
DR6       -1.00 dB   -10.42 dB     10:08 01-Beautiful 美
DR6       -1.00 dB    -9.14 dB      8:45 02-The Vertical Garden 垂直花园
DR6       -1.00 dB   -12.03 dB     11:07 03-Water Travel 水之旅
DR11      -1.00 dB   -16.03 dB      6:35 04-Moments of You, With I 你与我的瞬间
--------------------------------------------------------------------------------
Number of tracks:  4
Official DR value: DR7
Samplerate:        48000 Hz
Channels:          2
Bits per sample:   24
Bitrate:           1509 kbps
Codec:             FLAC
================================================================================
15:06
291
Нет комментариев. Ваш будет первым!