Поиск

2021 Teddy Wilson - Been a While {Nagel Heyer} [24-44.1]

2021 Teddy Wilson - Been a While {Nagel Heyer} [24-44.1]
Дата издания диска:
30 августа 2021
Издатель (лейбл):
Носитель:
WEB
Формат:
PCM
Тип рипа:
tracks
Контейнер:
FLAC (*.flac)
Количество каналов:
2.0
Разрядность/ЧД:
24/44,1
Битрейт аудио:
lossless
Время звучания:
00:55:58
Наличие сканов:
только обложка

Треклист:

01 - Lil' Darlin' 03:37
02 - Love 04:31
03 - Take the "A" Train 05:01
04 - The Second Time Around 02:31
05 - Shiny Stockings 03:45
06 - King Porter Stomp 02:13
07 - Satin Doll 07:01
08 - I'm Thru with Love 02:23
09 - Undecided 04:23
10 - Ain't Misbehavin' 02:32
11 - Stompin' at the Savoy 05:24
12 - Love II 04:53
13 - Stella by Starlight / Laura 02:50
14 - Take the "A" Train II 04:54

Состав:
  • Teddy Wilson — piano
  • Peter Chapman — bass
  • Johnny Richardson — drums
Лог проверки качества
foobar2000 1.4.3 / Dynamic Range Meter 1.1.1
log date: 2021-09-08 18:41:43
--------------------------------------------------------------------------------
Analyzed: Teddy Wilson / Been a While
--------------------------------------------------------------------------------
DR         Peak         RMS     Duration Track
--------------------------------------------------------------------------------
DR12      -1.00 dB   -16.08 dB      3:38 01-Lil' Darlin'
DR11      -1.00 dB   -14.50 dB      4:31 02-Love
DR12      -1.00 dB   -14.51 dB      5:01 03-Take the "A" Train
DR11      -1.00 dB   -14.56 dB      2:31 04-The Second Time Around
DR12      -1.00 dB   -15.11 dB      3:45 05-Shiny Stockings
DR10      -1.00 dB   -13.63 dB      2:14 06-King Porter Stomp
DR12      -1.00 dB   -15.30 dB      7:01 07-Satin Doll
DR11      -1.00 dB   -14.23 dB      2:24 08-I'm Thru with Love
DR12      -1.00 dB   -14.84 dB      4:23 09-Undecided
DR9       -1.00 dB   -12.62 dB      2:32 10-Ain't Misbehavin'
DR12      -1.00 dB   -14.66 dB      5:25 11-Stompin' at the Savoy
DR9       -1.00 dB   -12.35 dB      4:53 12-Love II
DR11      -1.00 dB   -14.23 dB      2:51 13-Stella by Starlight / Laura
DR9       -1.00 dB   -12.68 dB      4:55 14-Take the "A" Train II
--------------------------------------------------------------------------------
Number of tracks:  14
Official DR value: DR11
Samplerate:        44100 Hz
Channels:          2
Bits per sample:   24
Bitrate:           1556 kbps
Codec:             FLAC
================================================================================
15:53
524
Нет комментариев. Ваш будет первым!