Поиск

2021 Swingrowers - Hybrid {Freshly Squeezed} [24-44.1]

2021 Swingrowers - Hybrid {Freshly Squeezed} [24-44.1]
Стили:
Место записи:
Panor Music Studio, Palermo
Дата издания диска:
26 марта 2021
Носитель:
WEB
Формат:
PCM
Тип рипа:
tracks
Контейнер:
FLAC (*.flac)
Количество каналов:
2.0
Разрядность/ЧД:
24/44,1
Битрейт аудио:
lossless
Время звучания:
00:32:05
Наличие сканов:
только обложка

Треклист:

01. In the Blink of an Eye (Intro) (01:49)
02. Hybrid (03:02)
03. Follow the Stars (03:20)
04. Seven Million Faces (03:39)
05. Precipitiamo (03:23)
06. Dreamland (Say Goodbye Bye Bye) (03:27)
07. Wannabe (03:00)
08. Invisible Army (03:13)
09. I Don't Know (How to Love) (03:39)
10. Rose (03:33)

Состав:
  • Loredana Grimaudo
  • Roberto Costa
  • Loredana Grimaudo
  • Ciro Pusateri
  • Alessio Costagliola
  • Management – Giulio Castronovo, GoMad Concerti
  • Mixed By, Mastered By – Gabriele Plescia, Roberto Costa (PiSk)*
  • Music By, Arranged By – Alessio Costagliola, Ciro Pusateri, Loredana Grimaudo, Roberto Costa (2)
  • Recorded By – Roberto Costa (2)
Лог проверки качества
foobar2000 1.6.7 / Замер динамического диапазона (DR) 1.1.1
Дата отчёта:  2021-10-20 12:03:24
--------------------------------------------------------------------------------
Анализ:   Swingrowers / Hybrid
--------------------------------------------------------------------------------
DR         Пики         RMS           Продолжительность трека
--------------------------------------------------------------------------------
DR9       -1.00 дБ   -12.51 дБ      1:49 01-In the Blink of an Eye (Intro)
DR7       -1.00 дБ   -10.56 дБ      3:02 02-Hybrid
DR8       -1.00 дБ   -11.25 дБ      3:20 03-Follow the Stars
DR8       -1.00 дБ   -10.27 дБ      3:39 04-Seven Million Faces
DR8       -1.00 дБ   -10.94 дБ      3:23 05-Precipitiamo
DR8       -1.00 дБ   -10.41 дБ      3:27 06-Dreamland (Say Goodbye Bye Bye)
DR7       -1.00 дБ   -10.13 дБ      3:00 07-Wannabe
DR7       -1.00 дБ   -10.72 дБ      3:13 08-Invisible Army
DR8       -1.00 дБ   -10.17 дБ      3:39 09-I Don't Know (How to Love)
DR7       -1.00 дБ   -10.36 дБ      3:33 10-Rose
--------------------------------------------------------------------------------
Количество треков: 10
Реальные значения DR: DR8
Частота:   44100 Гц
Каналов:   2
Разрядность:   24
Битрейт:   1587 кбит/с
Кодек:   FLAC
================================================================================
По всем вопросам пишите личное сообщение пользователю M0p94ok.
22:53
146
Нет комментариев. Ваш будет первым!