Поиск

2021 Slowly Rolling Camera - Where the Streets Lead {Edition} [24-48]

2021 Slowly Rolling Camera - Where the Streets Lead {Edition} [24-48]
Дата издания диска:
23 июля 2021
Издатель (лейбл):
Носитель:
WEB
Формат:
PCM
Тип рипа:
tracks
Контейнер:
FLAC (*.flac)
Количество каналов:
2.0
Разрядность/ЧД:
24/48
Битрейт аудио:
lossless
Время звучания:
00:46:14
Наличие сканов:
буклет pdf

Треклист:

01 - You Are the Truth (00:04:39)
02 - Where the Streets Lead (00:05:43)
03 - Lost Orbits (04:44)
04 - The Afternoon of Human Life (07:03)
05 - Widest Possible Aperture (05:55)
06 - Illuminate (04:30)
07 - Feels Like Fiction (06:58)
08 - A Force for Good (06:38)

Состав:
  • Dave Stapleton Fender Rhodes, Piano, Prophet, Moog
  • Elliot Bennett Drums
  • Deri Roberts Sound Design & Production
  • Mark Lockheart Soprano and Tenor Saxophone
  • Stuart McCallum Guitar
  • Jasper Høiby Double Bass
  • Verneri Pohjola Trumpet
  • Chris Potter Tenor Saxophone (The Afternoon of Human Life)
  • Sachal Vasandani Vocals
  • Jon Visanji violin
  • Jenni Curiel violin
  • James Toll violin
  • Victoria Stapleton violin
  • Linda Kidwell viola
  • Rob Tuson viola
  • Phil Daish-Handy cello
  • Lionel Handy cello

String arrangements by Dave Stapleton
Recorded remotely at various locations
Vocals on Illuminate recorded at Sear Studios, NYC on Sunday 17th January 2021 by Jeremy Loucas
Strings recorded by Andy Allan at Turner Sims, Southampton in August 2020
Mixed by Deri Roberts in January and February 2021
Mastered by Donal Whelan at Hafod Mastering in Feb 2021

Доп. инфо:
Лог проверки качества
foobar2000 1.4.2 / Dynamic Range Meter 1.1.1
log date: 2021-07-24 06:42:51
--------------------------------------------------------------------------------
Analyzed: Slowly Rolling Camera / Where the Streets Lead
--------------------------------------------------------------------------------
DR         Peak         RMS     Duration Track
--------------------------------------------------------------------------------
DR11      -0.21 dB   -13.80 dB      4:40 01-You Are the Truth
DR11      -0.20 dB   -13.64 dB      5:43 02-Where the Streets Lead
DR10      -0.20 dB   -12.71 dB      4:45 03-Lost Orbits
DR10      -0.20 dB   -12.76 dB      7:03 04-The Afternoon of Human Life
DR11      -0.20 dB   -15.84 dB      5:56 05-Widest Possible Aperture
DR12      -0.23 dB   -14.30 dB      4:30 06-Illuminate
DR11      -0.20 dB   -13.51 dB      6:59 07-Feels Like Fiction
DR11      -0.20 dB   -15.60 dB      6:39 08-A Force for Good
--------------------------------------------------------------------------------
Number of tracks:  8
Official DR value: DR11
Samplerate:        48000 Hz
Channels:          2
Bits per sample:   24
Bitrate:           1547 kbps
Codec:             FLAC
================================================================================
По всем вопросам пишите личное сообщение пользователю M0p94ok.
17:35
208
Нет комментариев. Ваш будет первым!