Поиск

2021 Silke Eberhard Trio - Being The Up And Down {Intakt} [24-48]

2021 Silke Eberhard Trio - Being The Up And Down {Intakt} [24-48]
Стили:
Дата записи диска:
13 августа - 14 августа 2000
Место записи:
Jazzclub A-Trane Berlin, Germany
Дата издания диска:
21 мая 2021
Издатель (лейбл):
Номер по каталогу:
365
Битрейт аудио:
lossless

Треклист:

◈ 01 - U11 (00:08:12)
◈ 02 - Strudel (00:07:09)
◈ 03 - Von A nach B (00:03:53)
◈ 04 - Laika's Descent (00:04:24)
◈ 05 - Hymne (00:05:51)
◈ 06 - Zeitlupenbossa (00:05:51)
◈ 07 - Damenschrank (00:03:31)
◈ 08 - Stray Around (00:06:31)
◈ 09 - Yuki Neko (00:04:51)

Состав:
  • Silke Eberhard: Alto Saxophone, Bass Clarinet
  • Jan Roder: Bass
  • Kay Lübke: Drums
  • Liner notes: Lynn René Bayley
  • Produced by Silke Eberhard and Intakt Records, Patrik Landolt, Anja Illmaier, Florian Keller

All compositions by Silke Eberhard (GEMA). Radio producer: Ulf Drechsel. Sound supervisor: Ralf-Peter Brinkmann. Recording engineer: Manuel Rieger. Digital cut and mastering: Benjamin Ihnow.

Лог проверки качества
foobar2000 1.4.2 / Dynamic Range Meter 1.1.1
log date: 2021-05-22 23:23:08

--------------------------------------------------------------------------------
Analyzed: Silke Eberhard Trio / Being the up and Down
--------------------------------------------------------------------------------

DR         Peak         RMS     Duration Track
--------------------------------------------------------------------------------
DR11      -1.18 dB   -15.06 dB      8:12 01-U11
DR10      -1.18 dB   -14.34 dB      7:10 02-Strudel
DR9       -1.18 dB   -14.03 dB      3:53 03-Von A nach B
DR13      -1.18 dB   -16.33 dB      4:24 04-Laika's Descent
DR11      -1.18 dB   -15.99 dB      5:51 05-Hymne
DR13      -1.77 dB   -18.57 dB      5:51 06-Zeitlupenbossa
DR12      -1.18 dB   -16.81 dB      3:32 07-Damenschrank
DR12      -1.18 dB   -15.17 dB      6:31 08-Stray Around
DR13      -1.18 dB   -16.23 dB      4:52 09-Yuki Neko
--------------------------------------------------------------------------------

Number of tracks:  9
Official DR value: DR12

Samplerate:        48000 Hz
Channels:          2
Bits per sample:   24
Bitrate:           1622 kbps
Codec:             FLAC
================================================================================
По всем вопросам пишите личное сообщение пользователю M0p94ok.
16:20
338
Нет комментариев. Ваш будет первым!