Поиск

2021 Rodney Whitaker - Outrospection: The Music of Gregg Hill {Origin} [CD]

2021 Rodney Whitaker - Outrospection: The Music of Gregg Hill {Origin} [CD]
Стили:
Дата записи диска:
7 августа - 9 августа 2020
Место записи:
Troubadour Studios, Lansing Michigan
Номер по каталогу:
82819
Носитель:
CD
Тип рипа:
tracks+.cue
Аудиокодек:
FLAC (*.flac)
Битрейт аудио:
lossless
Время звучания:
01:05:05
Наличие сканов:
да
Страна-производитель диска (релиза):
USA
Релизёр (источник):
Soliloquy
Лог создания рипа
Exact Audio Copy V1.3 from 2. September 2016

EAC extraction logfile from 31. May 2021, 19:51

Rodney Whitaker / Outrospection: The Music Of Gregg Hill

Used drive  : TSSTcorpCDDVDW TS-H653N   Adapter: 1  ID: 0

Read mode               : Secure
Utilize accurate stream : Yes
Defeat audio cache      : Yes
Make use of C2 pointers : No

Read offset correction                      : 6
Overread into Lead-In and Lead-Out          : No
Fill up missing offset samples with silence : Yes
Delete leading and trailing silent blocks   : No
Null samples used in CRC calculations       : Yes
Used interface                              : Native Win32 interface for Win NT & 2000
Gap handling                                : Appended to previous track

Used output format              : User Defined Encoder
Selected bitrate                : 1024 kBit/s
Quality                         : High
Add ID3 tag                     : No
Command line compressor         : C:\Program Files (x86)\Exact Audio Copy\Flac\flac.exe
Additional command line options : -8 -V -T "ARTIST=%artist%" -T "TITLE=%title%" -T "ALBUM=%albumtitle%" -T "DATE=%year%" -T "TRACKNUMBER=%tracknr%" -T "GENRE=%genre%" -T "ALBUMARTIST=%albumartist%" -T "ALBUM ARTIST=%albumartist%" -T "COMMENT=EAC Secure Mode, Test & Copy, AccurateRip, FLAC -8" %source%

TOC of the extracted CD

     Track |   Start  |  Length  | Start sector | End sector
    ---------------------------------------------------------
        1  |  0:00.00 |  6:27.47 |         0    |    29071
        2  |  6:27.47 |  4:11.50 |     29072    |    47946
        3  | 10:39.22 |  3:30.43 |     47947    |    63739
        4  | 14:09.65 |  7:11.51 |     63740    |    96115
        5  | 21:21.41 |  6:55.25 |     96116    |   127265
        6  | 28:16.66 |  8:13.19 |    127266    |   164259
        7  | 36:30.10 |  5:40.56 |    164260    |   189815
        8  | 42:10.66 |  5:58.10 |    189816    |   216675
        9  | 48:09.01 |  6:06.13 |    216676    |   244138
       10  | 54:15.14 |  4:42.24 |    244139    |   265312
       11  | 58:57.38 |  6:07.35 |    265313    |   292872

Track  1

     Filename C:\That is the question\Rodney Whitaker - Outrospection The Music Of Gregg Hill (2021) [FLAC] {82819}\01 - Outrospection.wav

     Pre-gap length  0:00:02.00

     Peak level 96.6 %
     Extraction speed 5.0 X
     Track quality 100.0 %
     Test CRC 8D06CC19
     Copy CRC 8D06CC19
     Track not present in AccurateRip database
     Copy OK

Track  2

     Filename C:\That is the question\Rodney Whitaker - Outrospection The Music Of Gregg Hill (2021) [FLAC] {82819}\02 - New Sunday.wav

     Pre-gap length  0:00:01.73

     Peak level 96.5 %
     Extraction speed 4.4 X
     Track quality 99.9 %
     Test CRC BA118334
     Copy CRC BA118334
     Track not present in AccurateRip database
     Copy OK

Track  3

     Filename C:\That is the question\Rodney Whitaker - Outrospection The Music Of Gregg Hill (2021) [FLAC] {82819}\03 - Dollah Hollah.wav

     Pre-gap length  0:00:01.73

     Peak level 96.5 %
     Extraction speed 5.7 X
     Track quality 100.0 %
     Test CRC 8B74855E
     Copy CRC 8B74855E
     Track not present in AccurateRip database
     Copy OK

Track  4

     Filename C:\That is the question\Rodney Whitaker - Outrospection The Music Of Gregg Hill (2021) [FLAC] {82819}\04 - Bridge To Nashua.wav

     Pre-gap length  0:00:02.41

     Peak level 96.6 %
     Extraction speed 6.7 X
     Track quality 100.0 %
     Test CRC A999697B
     Copy CRC A999697B
     Track not present in AccurateRip database
     Copy OK

Track  5

     Filename C:\That is the question\Rodney Whitaker - Outrospection The Music Of Gregg Hill (2021) [FLAC] {82819}\05 - Stargazer.wav

     Pre-gap length  0:00:05.06

     Peak level 96.6 %
     Extraction speed 6.3 X
     Track quality 99.9 %
     Test CRC 51682818
     Copy CRC 51682818
     Track not present in AccurateRip database
     Copy OK

Track  6

     Filename C:\That is the question\Rodney Whitaker - Outrospection The Music Of Gregg Hill (2021) [FLAC] {82819}\06 - J-Quest.wav

     Pre-gap length  0:00:05.39

     Peak level 96.6 %
     Extraction speed 8.0 X
     Track quality 100.0 %
     Test CRC 7774AA52
     Copy CRC 7774AA52
     Track not present in AccurateRip database
     Copy OK

Track  7

     Filename C:\That is the question\Rodney Whitaker - Outrospection The Music Of Gregg Hill (2021) [FLAC] {82819}\07 - Ballade.wav

     Pre-gap length  0:00:03.18

     Peak level 96.5 %
     Extraction speed 8.2 X
     Track quality 100.0 %
     Test CRC 43F2937D
     Copy CRC 43F2937D
     Track not present in AccurateRip database
     Copy OK

Track  8

     Filename C:\That is the question\Rodney Whitaker - Outrospection The Music Of Gregg Hill (2021) [FLAC] {82819}\08 - Cadillac Club.wav

     Pre-gap length  0:00:04.02

     Peak level 96.5 %
     Extraction speed 8.7 X
     Track quality 100.0 %
     Test CRC 76793343
     Copy CRC 76793343
     Track not present in AccurateRip database
     Copy OK

Track  9

     Filename C:\That is the question\Rodney Whitaker - Outrospection The Music Of Gregg Hill (2021) [FLAC] {82819}\09 - Aloogabooga.wav

     Pre-gap length  0:00:03.41

     Peak level 96.6 %
     Extraction speed 7.8 X
     Track quality 99.9 %
     Test CRC 0F1C338B
     Copy CRC 0F1C338B
     Track not present in AccurateRip database
     Copy OK

Track 10

     Filename C:\That is the question\Rodney Whitaker - Outrospection The Music Of Gregg Hill (2021) [FLAC] {82819}\10 - Pointe Being.wav

     Pre-gap length  0:00:04.61

     Peak level 96.5 %
     Extraction speed 9.1 X
     Track quality 100.0 %
     Test CRC F26485A0
     Copy CRC F26485A0
     Track not present in AccurateRip database
     Copy OK

Track 11

     Filename C:\That is the question\Rodney Whitaker - Outrospection The Music Of Gregg Hill (2021) [FLAC] {82819}\11 - The Peace Song.wav

     Pre-gap length  0:00:03.41

     Peak level 96.6 %
     Extraction speed 9.6 X
     Track quality 100.0 %
     Test CRC E5E32466
     Copy CRC E5E32466
     Track not present in AccurateRip database
     Copy OK

None of the tracks are present in the AccurateRip database

No errors occurred

End of status report

---- CUETools DB Plugin V2.1.6

[CTDB TOCID: C47.c.Wo7CdMh738eUnuromfQhM-] found
Submit result: C47.c.Wo7CdMh738eUnuromfQhM- has been confirmed
Track | CTDB Status
  1   | (1/1) Accurately ripped
  2   | (1/1) Accurately ripped
  3   | (1/1) Accurately ripped
  4   | (1/1) Accurately ripped
  5   | (1/1) Accurately ripped
  6   | (1/1) Accurately ripped
  7   | (1/1) Accurately ripped
  8   | (1/1) Accurately ripped
  9   | (1/1) Accurately ripped
 10   | (1/1) Accurately ripped
 11   | (1/1) Accurately ripped

==== Log checksum 0B7EB72E596DF1FA1C3FC8A0CD57AC48FF3A17DB93C6348C080C54C0844D06C8 ====
Содержание индексной карты (.CUE)
REM GENRE Jazz
REM DATE 2021
REM DISCID A80F400B
REM COMMENT "ExactAudioCopy v1.3"
PERFORMER "Rodney Whitaker"
TITLE "Outrospection: The Music of Gregg Hill"
FILE "01 - Outrospection.wav" WAVE
  TRACK 01 AUDIO
    TITLE "Outrospection"
    PERFORMER "Rodney Whitaker"
    INDEX 01 00:00:00
  TRACK 02 AUDIO
    TITLE "New Sunday"
    PERFORMER "Rodney Whitaker"
    INDEX 00 06:25:49
FILE "02 - New Sunday.wav" WAVE
    INDEX 01 00:00:00
  TRACK 03 AUDIO
    TITLE "Dollah Hollah"
    PERFORMER "Rodney Whitaker"
    INDEX 00 04:09:52
FILE "03 - Dollah Hollah.wav" WAVE
    INDEX 01 00:00:00
  TRACK 04 AUDIO
    TITLE "Bridge to Nashua"
    PERFORMER "Rodney Whitaker"
    INDEX 00 03:28:02
FILE "04 - Bridge to Nashua.wav" WAVE
    INDEX 01 00:00:00
  TRACK 05 AUDIO
    TITLE "Stargazer"
    PERFORMER "Rodney Whitaker"
    INDEX 00 07:06:45
FILE "05 - Stargazer.wav" WAVE
    INDEX 01 00:00:00
  TRACK 06 AUDIO
    TITLE "J-Quest"
    PERFORMER "Rodney Whitaker"
    INDEX 00 06:49:61
FILE "06 - J-Quest.wav" WAVE
    INDEX 01 00:00:00
  TRACK 07 AUDIO
    TITLE "Ballade"
    PERFORMER "Rodney Whitaker"
    INDEX 00 08:10:01
FILE "07 - Ballade.wav" WAVE
    INDEX 01 00:00:00
  TRACK 08 AUDIO
    TITLE "Cadillac Club"
    PERFORMER "Rodney Whitaker"
    INDEX 00 05:36:54
FILE "08 - Cadillac Club.wav" WAVE
    INDEX 01 00:00:00
  TRACK 09 AUDIO
    TITLE "Aloogabooga"
    PERFORMER "Rodney Whitaker"
    INDEX 00 05:54:44
FILE "09 - Aloogabooga.wav" WAVE
    INDEX 01 00:00:00
  TRACK 10 AUDIO
    TITLE "Pointe Being"
    PERFORMER "Rodney Whitaker"
    INDEX 00 06:01:27
FILE "10 - Pointe Being.wav" WAVE
    INDEX 01 00:00:00
  TRACK 11 AUDIO
    TITLE "The Peace Song"
    PERFORMER "Rodney Whitaker"
    INDEX 00 04:38:58
FILE "11 - The Peace Song.wav" WAVE
    INDEX 01 00:00:00
No seeders - write personal message to M0p94ok. Any questions - support@pro-jazz.com.
Нет сидеров - пишите в личку M0p94ok. Есть вопросы - support@pro-jazz.com
12:03
55
Нет комментариев. Ваш будет первым!