Поиск

2021 Renaud Garcia-Fons - Le Souffle Des Cordes (The Breath of Strings) {E-Motive} [24-48]

2021 Renaud Garcia-Fons - Le Souffle Des Cordes (The Breath of Strings) {E-Motive} [24-48]
Дата издания диска:
12 ноября 2021
Носитель:
WEB
Формат:
PCM
Тип рипа:
tracks
Контейнер:
FLAC (*.flac)
Количество каналов:
2.0
Разрядность/ЧД:
24/48
Битрейт аудио:
lossless
Время звучания:
00:57:47
Наличие сканов:
только обложка

Треклист:

01 - Animame! 07:09
02 - Mamammouchi 05:28
03 - Serene walk 05:50
04 - Prélude du Bal des Haftan 01:34
05 - Le Bal des Haftan 04:44
06 - Skopje melodija 05:03
07 - Jinete viento 05:58
08 - Chiche hoop 05:09
09 - Rock my strings 05:13
10 - Qi Yun 04:32
11 - Prélude du souffle des cordes 01:38
12 - Le souffle des cordes 05:29

Состав:
  • Renaud Garcia-Fons — 5-wire contrabas
  • Kiko Ruiz — flamenco guitar
  • Derya Turkan — kemence
  • Serkan Halili — kanun
  • Florent Brannens, Amandine Ley — violin
  • Aurelia Souvignet — viola
  • Nicolas Saint-Yves — cello
Доп. инфо:

Эмансипация контрабаса произошла благодаря Рено Гарсия-Фонсу. Он вывел сольные качества инструмента на первый план. После более чем 15 альбомов его стилистическая полигамия стала его визитной карточкой: джаз, классика, традиционная музыка, а в идеале все это одновременно. В своем новом альбоме Le souffle des cordes он объединяет турецкие струнные инструменты, гитару фламенко и струнные, уважая при этом аутентичность и традиции каждого музыканта. Гарсия-Фонс выступает в роли связующего звена между этими разными музыкальными мирами.

Лог проверки качества
foobar2000 1.4.3 / Dynamic Range Meter 1.1.1
log date: 2021-11-14 13:52:52
--------------------------------------------------------------------------------
Analyzed: Renaud Garcia-Fons / Le Souffle des cordes
--------------------------------------------------------------------------------
DR         Peak         RMS     Duration Track
--------------------------------------------------------------------------------
DR6       -1.01 dB   -10.13 dB      7:10 01-Animame!
DR5       -1.01 dB    -8.70 dB      5:29 02-Mamammouchi
DR6       -1.01 dB    -9.33 dB      5:50 03-Serene walk
DR10      -1.02 dB   -13.76 dB      1:35 04-Prélude du Bal des Haftan
DR7       -1.01 dB   -10.21 dB      4:44 05-Le Bal des Haftan
DR8       -1.01 dB   -11.81 dB      5:03 06-Skopje melodija
DR7       -1.01 dB   -10.88 dB      5:59 07-Jinete viento
DR6       -1.01 dB    -9.73 dB      5:09 08-Chiche hoop
DR8       -1.01 dB   -11.64 dB      5:14 09-Rock my strings
DR7       -1.01 dB   -11.14 dB      4:33 10-Qi Yun
DR10      -1.68 dB   -16.23 dB      1:39 11-Prélude du souffle des cordes
DR7       -1.01 dB   -11.32 dB      5:29 12-Le souffle des cordes
--------------------------------------------------------------------------------
Number of tracks:  12
Official DR value: DR7
Samplerate:        48000 Hz
Channels:          2
Bits per sample:   24
Bitrate:           1597 kbps
Codec:             FLAC
================================================================================
По всем вопросам пишите личное сообщение пользователю M0p94ok.
10:47
133
Нет комментариев. Ваш будет первым!