Поиск

2021 Oscar Pettiford - All That Jazz, Vol. 141: The Man at the Bass in Studio and on Stage {Jube Legends} [24-48]

2021 Oscar Pettiford - All That Jazz, Vol. 141: The Man at the Bass in Studio and on Stage {Jube Legends} [24-48]
Стили:
Издатель (лейбл):
Носитель:
WEB
Формат:
PCM
Тип рипа:
tracks
Контейнер:
FLAC (*.flac)
Количество каналов:
2.0
Разрядность/ЧД:
24/48
Битрейт аудио:
lossless
Время звучания:
01:08:22
Наличие сканов:
только обложка

Треклист:

01 - Jordu OPQ 04:53
02 - Embraceable You OPQ 07:28
03 - Sometimes I'm Happy (Sometimes I'm Blue) OPQ 05:52
04 - Oh Yeah? OPQ 04:26
05 - Willow Weep for Me 03:56
06 - Blues in the Closet 05:12
07 - Shaw' Nuff 03:10
08 - Salt Peanuts 03:36
09 - John's Abbey 03:20
10 - Yesterdays OPQ 06:24
11 - Just You, Just Me OPQ 05:53
12 - All the Things You Are OPQ 06:45
13 - Stuffy OPQ 07:27

Состав:
Лог проверки качества
foobar2000 1.4.3 / Dynamic Range Meter 1.1.1
log date: 2021-10-06 19:22:55
--------------------------------------------------------------------------------
Analyzed: Oscar Pettiford Quartet / All That Jazz, Vol. 141: The Man at the Bass in Studio and on Stage (Live) (1-8)
          Oscar Pettiford / All That Jazz, Vol. 141: The Man at the Bass in Studio and on Stage (Live) (9-13)
--------------------------------------------------------------------------------
DR         Peak         RMS     Duration Track
--------------------------------------------------------------------------------
DR13      -0.03 dB   -15.80 dB      4:54 01-Jordu
DR14      -0.03 dB   -17.80 dB      7:28 02-Embraceable You
DR14      -0.03 dB   -16.14 dB      5:53 03-Sometimes I'm Happy (Sometimes I'm Blue)
DR13      -0.03 dB   -15.74 dB      4:27 04-Oh Yeah?
DR18      -0.03 dB   -20.46 dB      6:25 10-Yesterdays (Live)
DR17      -0.03 dB   -19.47 dB      5:53 11-Just You, Just Me (Live)
DR16      -0.03 dB   -19.13 dB      6:45 12-All the Things You Are (Live)
DR16      -0.03 dB   -18.16 dB      7:28 13-Stuffy (Live)
DR12      -0.03 dB   -16.02 dB      3:57 05-Willow Weep for Me (Live)
DR15      -0.03 dB   -17.65 dB      5:12 06-Blues in the Closet (Live)
DR15      -0.03 dB   -19.77 dB      3:11 07-Shaw' Nuff (Live)
DR15      -0.03 dB   -21.28 dB      3:36 08-Salt Peanuts (Live)
DR13      -0.03 dB   -17.68 dB      3:20 09-John's Abbey (Live)
--------------------------------------------------------------------------------
Number of tracks:  13
Official DR value: DR15
Samplerate:        48000 Hz
Channels:          2
Bits per sample:   24
Bitrate:           1525 kbps
Codec:             FLAC
================================================================================
12:11
488
Нет комментариев. Ваш будет первым!