Поиск

2021 Orrin Evans - The Magic of Now {Smoke Sessions} [24-48]

2021 Orrin Evans - The Magic of Now {Smoke Sessions} [24-48]
Стили:
Дата записи диска:
11 декабря - 12 декабря 2020
Место записи:
SMOKE, New York City, NY, USA
Дата издания диска:
23 июля 2021
Издатель (лейбл):
Носитель:
WEB
Формат:
PCM
Тип рипа:
tracks
Контейнер:
FLAC (*.flac)
Количество каналов:
2.0
Разрядность/ЧД:
24/48
Битрейт аудио:
lossless
Время звучания:
00:57:39
Наличие сканов:
только обложка

1. Mynah / The Eleventh Hour  13:48
2. Libra  05:54
3. The Poor Fisherman  08:21
4. MAT-Matt  08:04
5. Levels  09:05
6. Momma Loves  08:42
7. Dave  03:43

Состав:
  • Immanuel Wilkins — alto saxophone
  • Orrin Evans — piano
  • Vicente Archer — bass
  • Bill Stewart — drums
  • Jazzzmeia Horn — vocals
  • Produced by Paul Stache
  • Associate Producer: Damon Smith
  • Recorded & Mixed by Edwin Huet, Tyler McDiarmid & Paul Stache
  • Mastered by Christopher Allen
Лог проверки качества
foobar2000 1.4.2 / Dynamic Range Meter 1.1.1
log date: 2021-07-23 10:25:12
--------------------------------------------------------------------------------
Analyzed: Orrin Evans / The Magic of Now
--------------------------------------------------------------------------------
DR         Peak         RMS     Duration Track
--------------------------------------------------------------------------------
DR9       -1.20 dB   -12.72 dB     13:48 01-Mynah / The Eleventh Hour
DR9       -1.20 dB   -12.45 dB      5:54 02-Libra
DR12      -1.20 dB   -17.43 dB      8:21 03-The Poor Fisherman
DR10      -1.20 dB   -12.89 dB      8:05 04-MAT-Matt
DR10      -1.20 dB   -13.83 dB      9:06 05-Levels
DR10      -1.20 dB   -13.71 dB      8:42 06-Momma Loves
DR12      -1.20 dB   -17.52 dB      3:43 07-Dave
--------------------------------------------------------------------------------
Number of tracks:  7
Official DR value: DR10
Samplerate:        48000 Hz
Channels:          2
Bits per sample:   24
Bitrate:           1538 kbps
Codec:             FLAC
================================================================================
Скачивание доступно после регистрации!!
Приватный:
Нет (DHT включён)
Размер:
694.93 Мб (728,685,420 байт) » файлов: 8
Участники:
0 раздают, 0 качают (0 участников всего)
Внешние участники:
9 раздают, 3 качают (12 участников всего) [ Обновить ]
17:46
577
Нет комментариев. Ваш будет первым!