Поиск

2021 Matt Ridley - The Antidote {Ubuntu Music} [24-96]

2021 Matt Ridley - The Antidote {Ubuntu Music} [24-96]
Дата записи диска:
29 октября - 31 октября 2019
Место записи:
Livingston Studios
Дата издания диска:
23 июля 2021
Издатель (лейбл):
Носитель:
WEB
Формат:
PCM
Тип рипа:
tracks
Контейнер:
FLAC (*.flac)
Количество каналов:
2.0
Разрядность/ЧД:
24/96
Битрейт аудио:
lossless
Время звучания:
00:58:25
Наличие сканов:
только обложка

1. Thalo Blue  08:38
2. The Minotaur  08:22
3. Ebb and Flow  08:11
4. Yardeville  07:35
5. Infant Eyes  02:52
6. Suite Part 1: Gautoma  05:10
7. Suite Part 2: Stranger Things  05:24
8. Suite Part 3: Adagio for the Fallen Stars  04:40
9. Suite Part 4: Finale  07:27

Состав:
  • Matt Ridley; double bass and composition.
  • Alex Hitchcock; saxophones
  • Ant Law; guitar
  • Tom Hewson; piano, fender rhodes and synthesizers
  • Marc Michel; drums
  • Engineered and Mixed by Sonny Johns
  • Mastered by Dave Darlington
Лог проверки качества
foobar2000 1.4.2 / Dynamic Range Meter 1.1.1
log date: 2021-07-23 10:24:57
--------------------------------------------------------------------------------
Analyzed: Matt Ridley / The Antidote
--------------------------------------------------------------------------------
DR         Peak         RMS     Duration Track
--------------------------------------------------------------------------------
DR9       -0.70 dB   -12.87 dB      8:39 01-Thalo Blue (feat. Alex Hitchcock, Ant Law, Tom Hewson & Marc Michel)
DR10      -0.70 dB   -13.70 dB      8:23 02-The Minotaur (feat. Alex Hitchcock, Ant Law, Tom Hewson & Marc Michel)
DR10      -0.70 dB   -14.10 dB      8:12 03-Ebb and Flow (feat. Alex Hitchcock, Ant Law, Tom Hewson & Marc Michel)
DR9       -0.70 dB   -12.73 dB      7:35 04-Yardeville (feat. Alex Hitchcock, Ant Law, Tom Hewson & Marc Michel)
DR12      -0.70 dB   -15.56 dB      2:52 05-Infant Eyes (feat. Alex Hitchcock, Ant Law, Tom Hewson & Marc Michel)
DR11      -0.70 dB   -13.32 dB      5:11 06-Suite, Pt. 1, Gautoma (feat. Alex Hitchcock, Ant Law, Tom Hewson & Marc Michel)
DR9       -0.70 dB   -11.69 dB      5:25 07-Suite, Pt. 2, Stranger Things (feat. Alex Hitchcock, Ant Law, Tom Hewson & Marc Michel)
DR10      -0.70 dB   -14.39 dB      4:41 08-Suite, Pt. 3, Adagio for the Fallen Stars (feat. Alex Hitchcock, Ant Law, Tom Hewson & Marc Michel)
DR10      -0.70 dB   -12.75 dB      7:28 09-Suite, Pt. 4, Finale (feat. Alex Hitchcock, Ant Law, Tom Hewson & Marc Michel)
--------------------------------------------------------------------------------
Number of tracks:  9
Official DR value: DR10
Samplerate:        96000 Hz
Channels:          2
Bits per sample:   24
Bitrate:           2787 kbps
Codec:             FLAC
================================================================================
Приватный:
Нет (DHT включён)
Размер:
1.10 Гб (1,181,840,685 байт) » файлов: 10
Участники:
0 раздают, 0 качают (0 участников всего)
Внешние участники:
--- [ Обновить ]
19:28
511
Нет комментариев. Ваш будет первым!