Поиск

2021 Mario Rašić - Trice {Nota Bene} [24-48]

2021 Mario Rašić - Trice {Nota Bene} [24-48]
Стили:
Дата издания диска:
18 июня 2021
Носитель:
WEB
Формат:
PCM
Тип рипа:
tracks
Контейнер:
FLAC (*.flac)
Количество каналов:
2.0
Разрядность/ЧД:
24/48
Битрейт аудио:
lossless
Время звучания:
00:35:57
Наличие сканов:
только обложка

Треклист:

01 - Bullfighting 03:12
02 - Homeless 05:37
03 - See You On the River 05:07
04 - Ghost Ship 04:19
05 - Tulip 06:37
06 - Barrack 04:22
07 - Scribe and Blacksmith 06:43

Состав:
  • Matija Dedić — piano, 5
  • Zvjezdan Ružić — piano, 7
  • Viktor Lipić — piano, 2,4,6
  • Amir Karalić — guitar, 1.6
  • Pavle Miljenović — guitar, 3
  • Adam Semijalac — guitar, 4
  • Ivan Kapec — guitar, 2.7
  • Mario Rašić — guitar, 7.5
  • Damir Šomen — drums, 1,2,6,7
  • Dado Marinkovic — drums, 4, percussion, 5
  • Mirsad Dalipi — drums, 5
  • Zvonimir Bajević — trumpet, 5
  • Marko Prepelić — trumpet, 4
  • Visar Kuci — violin
  • Mario Rasic — bass, 1,2,3,4,5,6,7
Лог проверки качества
foobar2000 1.4.3 / Dynamic Range Meter 1.1.1
log date: 2021-07-31 18:44:59
--------------------------------------------------------------------------------
Analyzed: Mario Rašić / Trice
--------------------------------------------------------------------------------
DR         Peak         RMS     Duration Track
--------------------------------------------------------------------------------
DR10       0.00 dB   -11.41 dB      3:12 01-Bullfighting
DR10       0.00 dB   -12.06 dB      5:38 02-Homeless
DR7       -0.78 dB    -9.37 dB      5:08 03-See You On the River
DR5       -0.36 dB    -7.23 dB      4:19 04-Ghost Ship
DR9       -0.33 dB   -11.85 dB      6:38 05-Tulip
DR5       -0.21 dB    -7.62 dB      4:22 06-Barrack
DR11      -1.14 dB   -16.88 dB      6:43 07-Scribe and Blacksmith
--------------------------------------------------------------------------------
Number of tracks:  7
Official DR value: DR8
Samplerate:        48000 Hz
Channels:          2
Bits per sample:   24
Bitrate:           1371 kbps
Codec:             FLAC
================================================================================
По всем вопросам пишите личное сообщение пользователю M0p94ok.
19:26
181
Нет комментариев. Ваш будет первым!