Поиск

2021 Lady Blackbird - Black Acid Soul {Foundation Music} [CD]

2021 Lady Blackbird - Black Acid Soul {Foundation Music} [CD]
Стили:
Место записи:
Sunset Sound, Los Angeles, CA, USA
Номер по каталогу:
538709402
Носитель:
CD
Тип рипа:
tracks+.cue
Аудиокодек:
FLAC (*.flac)
Битрейт аудио:
lossless
Время звучания:
00:42:00
Наличие сканов:
только обложка
Релизёр (источник):
turbomandoll

01. Blackbird (4:01)
02. It's Not That Easy (3:00)
03. Fix It (4:51)
04. Ruler of My Heart (3:43)
05. Nobody's Sweetheart (3:38)
06. Collage (3:17)
07. Five Feet Tall (3:21)
08. Lost and Looking (4:22)
09. It'll Never Happen Again (3:39)
10. Beware the Stranger (4:14)
11. Black Acid Soul (3:54)

Состав:
  • Baby Grand Piano [Steinway], Mellotron, Synth [Casio] – Deron Johnson
  • Double Bass – Jon Flaugher
  • Drums, Percussion – Jimmy Paxson
  • Engineer [Assistant] – Nate Haessly
  • Engineer [Recording And Mix] – Seth Atkins Horan
  • Mastered By – Bernie Grundman
  • Producer, Arranged By – Chris Seefried
  • Vocals [All Vocals] – Lady Blackbird
Лог создания рипа
Exact Audio Copy V1.6 from 23. October 2020
EAC extraction logfile from 29. January 2022, 16:23
Lady Blackbird / Black Acid Soul
Used drive  : HL-DT-STDVDRAM GP65NB60   Adapter: 1  ID: 0
Read mode               : Secure
Utilize accurate stream : Yes
Defeat audio cache      : Yes
Make use of C2 pointers : No
Read offset correction                      : 6
Overread into Lead-In and Lead-Out          : No
Fill up missing offset samples with silence : Yes
Delete leading and trailing silent blocks   : No
Null samples used in CRC calculations       : Yes
Used interface                              : Native Win32 interface for Win NT & 2000
Gap handling                                : Appended to previous track
Used output format              : User Defined Encoder
Selected bitrate                : 1024 kBit/s
Quality                         : High
Add ID3 tag                     : No
Command line compressor         : C:\Program Files (x86)\Exact Audio Copy\Flac\flac.exe
Additional command line options : -8 -V -T "ARTIST=%artist%" -T "TITLE=%title%" -T "ALBUM=%albumtitle%" -T "DATE=%year%" -T "TRACKNUMBER=%tracknr%" -T "GENRE=%genre%" -T "PERFORMER=%albuminterpret%" -T "COMPOSER=%composer%" -T "ALBUMARTIST=%albumartist%" -T "DISCNUMBER=%cdnumber%" -T "TOTALDISCS=%totalcds%" -T "TOTALTRACKS=%numtracks%" -T "COMMENT=%comment%" %source% -o %dest%
TOC of the extracted CD
     Track |   Start  |  Length  | Start sector | End sector
    ---------------------------------------------------------
        1  |  0:00.00 |  4:01.20 |         0    |    18094
        2  |  4:01.20 |  3:00.12 |     18095    |    31606
        3  |  7:01.32 |  4:51.00 |     31607    |    53431
        4  | 11:52.32 |  3:42.43 |     53432    |    70124
        5  | 15:35.00 |  3:38.15 |     70125    |    86489
        6  | 19:13.15 |  3:17.03 |     86490    |   101267
        7  | 22:30.18 |  3:20.55 |    101268    |   116322
        8  | 25:50.73 |  4:21.60 |    116323    |   135957
        9  | 30:12.58 |  3:38.74 |    135958    |   152381
       10  | 33:51.57 |  4:13.45 |    152382    |   171401
       11  | 38:05.27 |  3:54.18 |    171402    |   188969
Track  1
     Filename D:\EAC\Lady Blackbird - Black Acid Soul (2021) {538709402} [CD FLAC]\01 - Blackbird.wav
     Pre-gap length  0:00:02.00
     Peak level 98.8 %
     Extraction speed 1.1 X
     Track quality 100.0 %
     Test CRC F181EF57
     Copy CRC F181EF57
     Track not present in AccurateRip database
     Copy OK
Track  2
     Filename D:\EAC\Lady Blackbird - Black Acid Soul (2021) {538709402} [CD FLAC]\02 - It's Not That Easy.wav
     Peak level 99.1 %
     Extraction speed 1.2 X
     Track quality 100.0 %
     Test CRC 2F2ECC35
     Copy CRC 2F2ECC35
     Track not present in AccurateRip database
     Copy OK
Track  3
     Filename D:\EAC\Lady Blackbird - Black Acid Soul (2021) {538709402} [CD FLAC]\03 - Fix It.wav
     Peak level 98.8 %
     Extraction speed 1.4 X
     Track quality 100.0 %
     Test CRC BC5F8D7D
     Copy CRC BC5F8D7D
     Track not present in AccurateRip database
     Copy OK
Track  4
     Filename D:\EAC\Lady Blackbird - Black Acid Soul (2021) {538709402} [CD FLAC]\04 - Ruler Of My Heart.wav
     Peak level 98.9 %
     Extraction speed 1.5 X
     Track quality 100.0 %
     Test CRC 8F102B74
     Copy CRC 8F102B74
     Track not present in AccurateRip database
     Copy OK
Track  5
     Filename D:\EAC\Lady Blackbird - Black Acid Soul (2021) {538709402} [CD FLAC]\05 - Nobody's Sweetheart.wav
     Peak level 98.8 %
     Extraction speed 1.6 X
     Track quality 100.0 %
     Test CRC 4FA7F015
     Copy CRC 4FA7F015
     Track not present in AccurateRip database
     Copy OK
Track  6
     Filename D:\EAC\Lady Blackbird - Black Acid Soul (2021) {538709402} [CD FLAC]\06 - Collage.wav
     Peak level 98.9 %
     Extraction speed 1.6 X
     Track quality 100.0 %
     Test CRC DC83C92C
     Copy CRC DC83C92C
     Track not present in AccurateRip database
     Copy OK
Track  7
     Filename D:\EAC\Lady Blackbird - Black Acid Soul (2021) {538709402} [CD FLAC]\07 - Five Feet Tall.wav
     Peak level 98.8 %
     Extraction speed 1.7 X
     Track quality 100.0 %
     Test CRC 941B4041
     Copy CRC 941B4041
     Track not present in AccurateRip database
     Copy OK
Track  8
     Filename D:\EAC\Lady Blackbird - Black Acid Soul (2021) {538709402} [CD FLAC]\08 - Lost and Looking.wav
     Peak level 99.1 %
     Extraction speed 1.9 X
     Track quality 100.0 %
     Test CRC 366885E2
     Copy CRC 366885E2
     Track not present in AccurateRip database
     Copy OK
Track  9
     Filename D:\EAC\Lady Blackbird - Black Acid Soul (2021) {538709402} [CD FLAC]\09 - It'll Never Happen Again.wav
     Peak level 98.8 %
     Extraction speed 1.9 X
     Track quality 100.0 %
     Test CRC 2B88C029
     Copy CRC 2B88C029
     Track not present in AccurateRip database
     Copy OK
Track 10
     Filename D:\EAC\Lady Blackbird - Black Acid Soul (2021) {538709402} [CD FLAC]\10 - Beware The Stranger.wav
     Peak level 98.9 %
     Extraction speed 1.8 X
     Track quality 99.9 %
     Test CRC 7EB745E2
     Copy CRC 7EB745E2
     Track not present in AccurateRip database
     Copy OK
Track 11
     Filename D:\EAC\Lady Blackbird - Black Acid Soul (2021) {538709402} [CD FLAC]\11 - Black Acid Soul.wav
     Peak level 98.9 %
     Extraction speed 2.1 X
     Track quality 100.0 %
     Test CRC 56464F05
     Copy CRC 56464F05
     Track not present in AccurateRip database
     Copy OK
None of the tracks are present in the AccurateRip database
No errors occurred
End of status report
---- CUETools DB Plugin V2.1.6
[CTDB TOCID: WFUjAJNWRxijnYkWTK3SoMQWk9Y-] found
Submit result: WFUjAJNWRxijnYkWTK3SoMQWk9Y- has been confirmed
Track | CTDB Status
  1   | (1/1) Accurately ripped
  2   | (1/1) Accurately ripped
  3   | (1/1) Accurately ripped
  4   | (1/1) Accurately ripped
  5   | (1/1) Accurately ripped
  6   | (1/1) Accurately ripped
  7   | (1/1) Accurately ripped
  8   | (1/1) Accurately ripped
  9   | (1/1) Accurately ripped
 10   | (1/1) Accurately ripped
 11   | (1/1) Accurately ripped
==== Log checksum B085A1D65246A029A57197E63A6963DE3B3C894B931626BAEB920AA222FEF46D ====
Скачивание доступно после регистрации!!
Приватный:
Нет (DHT включён)
Размер:
214.73 Мб (225,158,859 байт) » файлов: 18
Участники:
0 раздают, 0 качают (0 участников всего)
Внешние участники:
9 раздают, 3 качают (12 участников всего) [ Обновить ]
09:12
447
Нет комментариев. Ваш будет первым!