Поиск

2021 Karoline Wallace - Stiklinger {Øra Fonogram} [24-96]

2021 Karoline Wallace - Stiklinger {Øra Fonogram} [24-96]
Битрейт аудио:
lossless
Лог проверки качества
foobar2000 1.6.4 / Dynamic Range Meter 1.1.1
log date: 2021-02-15 17:40:24

--------------------------------------------------------------------------------
Analyzed: Karoline Wallace / Stiklinger
--------------------------------------------------------------------------------

DR         Peak         RMS     Duration Track
--------------------------------------------------------------------------------
DR9       -1.00 dB   -12.49 dB      5:08 01-Rosehus
DR6       -1.00 dB   -11.92 dB      6:24 02-Tri loopår
DR6       -1.00 dB   -10.54 dB      9:22 03-Plis Rosalin
DR11      -1.00 dB   -15.13 dB      4:40 04-Om du e 1.60 høy?
DR8       -1.00 dB   -12.63 dB      7:41 05-Ett er nødigt
DR12      -4.22 dB   -18.55 dB      3:55 06-Nei, Karoline, nå kommer sola
--------------------------------------------------------------------------------

Number of tracks:  6
Official DR value: DR9

Samplerate:        96000 Hz
Channels:          2
Bits per sample:   24
Bitrate:           2497 kbps
Codec:             FLAC
================================================================================
No seeders - write personal message to M0p94ok. Any questions - support@pro-jazz.com.
Нет сидеров - пишите в личку M0p94ok. Есть вопросы - support@pro-jazz.com
13:49
90
Нет комментариев. Ваш будет первым!