Поиск

2021 Julian Lage - Squint {Blue Note} [24-96]

2021 Julian Lage - Squint {Blue Note} [24-96]
Стили:
Издатель (лейбл):
Носитель:
WEB
Формат:
PCM
Тип рипа:
tracks
Контейнер:
FLAC (*.flac)
Количество каналов:
2.0
Разрядность/ЧД:
24/96
Битрейт аудио:
lossless
Время звучания:
00:45:32
Наличие сканов:
только обложка

Треклист:

01. Etude (2:27)
02. Boo's Blues (3:25)
03. Squint (4:30)
04. Saint Rose (4:36)
05. Emily (5:28)
06. Familiar Flower (3:59)
07. Day and Age (3:15)
08. Quiet Like A Fuse (6:53)
09. Short Form (3:32)
10. Twilight Surfer (4:18)
11. Call Of The Canyon (3:12)

Состав:
  • Julian Lage, guitar
  • Dave King, drums
  • Jorge Roeder, bass
Лог проверки качества
foobar2000 1.4.8 / Dynamic Range Meter 1.1.1
log date: 2021-06-12 09:27:06

--------------------------------------------------------------------------------
Analyzed: Julian Lage / Squint
--------------------------------------------------------------------------------

DR         Peak         RMS     Duration Track
--------------------------------------------------------------------------------
DR8       -0.02 dB   -11.73 dB      2:27 01-Etude
DR8        0.00 dB    -9.96 dB      3:25 02-Boo's Blues
DR8        0.00 dB   -10.03 dB      4:30 03-Squint
DR7        0.00 dB    -8.88 dB      4:36 04-Saint Rose
DR11      -0.02 dB   -14.47 dB      5:29 05-Emily
DR7        0.00 dB    -8.33 dB      3:59 06-Familiar Flower
DR7        0.00 dB   -10.28 dB      3:15 07-Day and Age
DR11       0.00 dB   -14.30 dB      6:53 08-Quiet Like A Fuse
DR8        0.00 dB   -10.06 dB      3:32 09-Short Form
DR6        0.00 dB    -9.24 dB      4:18 10-Twilight Surfer
DR9        0.00 dB   -12.41 dB      3:12 11-Call Of The Canyon
--------------------------------------------------------------------------------

Number of tracks:  11
Official DR value: DR8
Samplerate:        96000 Hz
Channels:          2
Bits per sample:   24
Bitrate:           2465 kbps
Codec:             FLAC
================================================================================
По всем вопросам пишите личное сообщение пользователю M0p94ok.
09:39
262
Нет комментариев. Ваш будет первым!