Поиск

2021 Judy Wexler - Back to the Garden {Jewel City Jazz} [24-96]

2021 Judy Wexler - Back to the Garden {Jewel City Jazz} [24-96]
Стили:
Дата издания диска:
4 июня 2021
Битрейт аудио:
lossless

◈ 01 - Get Together (00:06:00)
◈ 02 - Up on the Roof (00:04:41)
◈ 03 - American Tune (00:04:03)
◈ 04 - Big Yellow Taxi (00:03:25)
◈ 05 - The Times They are A'Changin' (00:04:44)
◈ 06 - Since You've Asked (00:03:28)
◈ 07 - For What It's Worth (00:03:53)
◈ 08 - Everybody's Talkin' (00:03:32)
◈ 09 - Forever Young (00:06:10)
◈ 10 - Who Knows Where the Times Goes (00:05:14)

Состав:
  • Judy Wexler, vocals
  • Jeff Colella, piano, melodica (5), background vocals (1)
  • Larry Koonse, nylon string & electric guitar
  • Gabe Davis, bass
  • Steve Hass, drums
  • Bob Thiele, Jr., electric guitar, baritone guitar (1,7,8,9)
  • Danny Janklow, alto saxophone (4)
  • Jay Jennings, trumpet (10)
  • Hendrik Meurkens, harmonica (8)
  • Sara Caswell, violin (9)
  • Joel Pargman, violin (3,6)
  • Carrie Kennedy, violin (6)
  • Rodney Wirtz, viola (3,6)
  • Stefanie Fife, cello (3,5,6)
  • Erin Bentlage, background vocals (1,4,7,9)
  • Talley Sherwood, background vocals (1)
Лог проверки качества
foobar2000 1.4.2 / Dynamic Range Meter 1.1.1
log date: 2021-06-08 17:45:13

--------------------------------------------------------------------------------
Analyzed: Judy Wexler / Back to the Garden
--------------------------------------------------------------------------------

DR         Peak         RMS     Duration Track
--------------------------------------------------------------------------------
DR9       -0.50 dB   -12.40 dB      6:00 01-Get Together
DR10      -0.50 dB   -13.02 dB      4:41 02-Up on the Roof
DR11      -0.50 dB   -14.47 dB      4:03 03-American Tune
DR9       -1.50 dB   -13.04 dB      3:25 04-Big Yellow Taxi
DR10      -0.50 dB   -13.72 dB      4:45 05-The Times They are A'Changin'
DR10      -0.50 dB   -13.06 dB      3:28 06-Since You've Asked
DR10      -0.50 dB   -12.15 dB      3:53 07-For What It's Worth
DR10      -0.50 dB   -13.16 dB      3:33 08-Everybody's Talkin'
DR8       -0.50 dB   -11.66 dB      6:11 09-Forever Young
DR11      -0.40 dB   -14.66 dB      5:15 10-Who Knows Where the Times Goes
--------------------------------------------------------------------------------

Number of tracks:  10
Official DR value: DR10

Samplerate:        96000 Hz
Channels:          2
Bits per sample:   24
Bitrate:           2539 kbps
Codec:             FLAC
================================================================================
Приватный:
Нет (DHT включён)
Размер:
883.25 Мб (926,154,248 байт) » файлов: 11
Участники:
0 раздают, 0 качают (0 участников всего)
Внешние участники:
5 раздают, 2 качают (7 участников всего) [ Обновить ]
20:04
445
Нет комментариев. Ваш будет первым!