Поиск

2021 Joe Lovano Trio Tapestry - Garden of Expression {ECM} [CD]

2021 Joe Lovano Trio Tapestry - Garden of Expression {ECM} [CD]
Издатель (лейбл):
Номер по каталогу:
ECM 2685
Носитель:
CD
Тип рипа:
tracks+.cue
Аудиокодек:
FLAC (*.flac)
Битрейт аудио:
lossless
Время звучания:
00:48:18
Наличие сканов:
да
Лог создания рипа
Exact Audio Copy V1.3 from 2. September 2016

EAC extraction logfile from 17. May 2021, 13:16

Trio Tapestry / Garden of Expression

Used drive  : HL-DT-STDVDRAM GSA-H62N   Adapter: 1  ID: 0

Read mode               : Secure
Utilize accurate stream : Yes
Defeat audio cache      : Yes
Make use of C2 pointers : No

Read offset correction                      : 667
Overread into Lead-In and Lead-Out          : No
Fill up missing offset samples with silence : Yes
Delete leading and trailing silent blocks   : No
Null samples used in CRC calculations       : Yes
Used interface                              : Native Win32 interface for Win NT & 2000
Gap handling                                : Appended to previous track

Used output format              : User Defined Encoder
Selected bitrate                : 1024 kBit/s
Quality                         : High
Add ID3 tag                     : No
Command line compressor         : C:\Program Files (x86)\Exact Audio Copy\Flac\flac.exe
Additional command line options : -8 -e -V -T "ARTIST=%artist%" -T "TITLE=%title%" -T "ALBUM=%albumtitle%" -T "DATE=%year%" -T "TRACKNUMBER=%tracknr%" -T "GENRE=%genre%" -T "PERFORMER=%albuminterpret%" -T "COMPOSER=%composer%" %haslyrics%--tag-from-file=LYRICS="%lyricsfile%"%haslyrics% -T "ALBUMARTIST=%albumartist%" -T "DISCNUMBER=%cdnumber%" -T "TOTALDISCS=%totalcds%" -T "TOTALTRACKS=%numtracks%" -T "COMMENT=%comment%" %source% -o %dest%

TOC of the extracted CD

     Track |   Start  |  Length  | Start sector | End sector
    ---------------------------------------------------------
        1  |  0:00.00 |  6:05.31 |         0    |    27405
        2  |  6:05.31 |  6:45.73 |     27406    |    57853
        3  | 12:51.29 |  5:47.36 |     57854    |    83914
        4  | 18:38.65 |  7:33.23 |     83915    |   117912
        5  | 26:12.13 |  5:03.48 |    117913    |   140685
        6  | 31:15.61 |  3:14.10 |    140686    |   155245
        7  | 34:29.71 |  3:06.74 |    155246    |   169269
        8  | 37:36.70 | 10:41.42 |    169270    |   217386

Track  1

     Filename F:\Trio Tapestry - Garden of Expression (2021) [FLAC]\01 - Chapel Song.wav

     Pre-gap length  0:00:02.00

     Peak level 91.7 %
     Extraction speed 4.7 X
     Track quality 100.0 %
     Test CRC 0A999098
     Copy CRC 0A999098
     Accurately ripped (confidence 2)  [2E2E659C]  (AR v2)
     Copy OK

Track  2

     Filename F:\Trio Tapestry - Garden of Expression (2021) [FLAC]\02 - Night Creatures.wav

     Peak level 96.5 %
     Extraction speed 5.5 X
     Track quality 100.0 %
     Test CRC 6ABAABDF
     Copy CRC 6ABAABDF
     Accurately ripped (confidence 2)  [199FF78A]  (AR v2)
     Copy OK

Track  3

     Filename F:\Trio Tapestry - Garden of Expression (2021) [FLAC]\03 - West of the Moon.wav

     Peak level 76.3 %
     Extraction speed 6.1 X
     Track quality 100.0 %
     Test CRC 9F11A4AC
     Copy CRC 9F11A4AC
     Accurately ripped (confidence 2)  [945F26B8]  (AR v2)
     Copy OK

Track  4

     Filename F:\Trio Tapestry - Garden of Expression (2021) [FLAC]\04 - Garden of Expression.wav

     Peak level 97.5 %
     Extraction speed 6.8 X
     Track quality 100.0 %
     Test CRC 30FB0258
     Copy CRC 30FB0258
     Accurately ripped (confidence 2)  [172D25AB]  (AR v2)
     Copy OK

Track  5

     Filename F:\Trio Tapestry - Garden of Expression (2021) [FLAC]\05 - Treasured Moments.wav

     Peak level 100.0 %
     Extraction speed 6.9 X
     Track quality 100.0 %
     Test CRC 42C62986
     Copy CRC 42C62986
     Accurately ripped (confidence 3)  [D3849A83]  (AR v2)
     Copy OK

Track  6

     Filename F:\Trio Tapestry - Garden of Expression (2021) [FLAC]\06 - Sacred Chant.wav

     Peak level 86.1 %
     Extraction speed 6.7 X
     Track quality 100.0 %
     Test CRC F75D21A8
     Copy CRC F75D21A8
     Accurately ripped (confidence 3)  [421C9440]  (AR v2)
     Copy OK

Track  7

     Filename F:\Trio Tapestry - Garden of Expression (2021) [FLAC]\07 - Dream on That.wav

     Peak level 96.5 %
     Extraction speed 7.1 X
     Track quality 100.0 %
     Test CRC 02C7FFCD
     Copy CRC 02C7FFCD
     Accurately ripped (confidence 3)  [0D600794]  (AR v2)
     Copy OK

Track  8

     Filename F:\Trio Tapestry - Garden of Expression (2021) [FLAC]\08 - Zen Like.wav

     Peak level 94.7 %
     Extraction speed 8.6 X
     Track quality 100.0 %
     Test CRC AEC443F4
     Copy CRC AEC443F4
     Accurately ripped (confidence 3)  [87D1C0EB]  (AR v2)
     Copy OK

All tracks accurately ripped

No errors occurred

End of status report

---- CUETools DB Plugin V2.1.6

[CTDB TOCID: fDFesKnV7NeiHevgBApzDzxqGgU-] found
Submit result: fDFesKnV7NeiHevgBApzDzxqGgU- has been confirmed
Track | CTDB Status
  1   | (38/38) Accurately ripped
  2   | (38/38) Accurately ripped
  3   | (38/38) Accurately ripped
  4   | (38/38) Accurately ripped
  5   | (38/38) Accurately ripped
  6   | (38/38) Accurately ripped
  7   | (38/38) Accurately ripped
  8   | (38/38) Accurately ripped

==== Log checksum 1968BA3B2B492F38912C6CE14BABCBBE9623151073CB901E132B25A9FD6A0217 ====
Содержание индексной карты (.CUE)
REM GENRE Jazz
REM DATE 2021
REM DISCID 6A0B5208
REM COMMENT "ExactAudioCopy v1.3"
CATALOG 0602435187211
PERFORMER "Trio Tapestry"
TITLE "Garden of Expression"
REM COMPOSER ""
FILE "01 - Chapel Song.wav" WAVE
  TRACK 01 AUDIO
    TITLE "Chapel Song"
    PERFORMER "Trio Tapestry"
    REM COMPOSER ""
    ISRC DEB331968501
    INDEX 01 00:00:00
FILE "02 - Night Creatures.wav" WAVE
  TRACK 02 AUDIO
    TITLE "Night Creatures"
    PERFORMER "Trio Tapestry"
    REM COMPOSER ""
    ISRC DEB331968502
    INDEX 01 00:00:00
FILE "03 - West of the Moon.wav" WAVE
  TRACK 03 AUDIO
    TITLE "West of the Moon"
    PERFORMER "Trio Tapestry"
    REM COMPOSER ""
    ISRC DEB331968503
    INDEX 01 00:00:00
FILE "04 - Garden of Expression.wav" WAVE
  TRACK 04 AUDIO
    TITLE "Garden of Expression"
    PERFORMER "Trio Tapestry"
    REM COMPOSER ""
    ISRC DEB331968504
    INDEX 01 00:00:00
FILE "05 - Treasured Moments.wav" WAVE
  TRACK 05 AUDIO
    TITLE "Treasured Moments"
    PERFORMER "Trio Tapestry"
    REM COMPOSER ""
    ISRC DEB331968505
    INDEX 01 00:00:00
FILE "06 - Sacred Chant.wav" WAVE
  TRACK 06 AUDIO
    TITLE "Sacred Chant"
    PERFORMER "Trio Tapestry"
    REM COMPOSER ""
    ISRC DEB331968506
    INDEX 01 00:00:00
FILE "07 - Dream on That.wav" WAVE
  TRACK 07 AUDIO
    TITLE "Dream on That"
    PERFORMER "Trio Tapestry"
    REM COMPOSER ""
    ISRC DEB331968507
    INDEX 01 00:00:00
FILE "08 - Zen Like.wav" WAVE
  TRACK 08 AUDIO
    TITLE "Zen Like"
    PERFORMER "Trio Tapestry"
    REM COMPOSER ""
    ISRC DEB331968508
    INDEX 01 00:00:00
No seeders - write personal message to M0p94ok. Any questions - support@pro-jazz.com.
Нет сидеров - пишите в личку M0p94ok. Есть вопросы - support@pro-jazz.com
18:01
47
Нет комментариев. Ваш будет первым!