Поиск

2021 Jimmy Raney, Jim Hall - Two of a Kind {Nagel Heyer} [24-44.1]

2021 Jimmy Raney, Jim Hall - Two of a Kind {Nagel Heyer} [24-44.1]
Дата издания диска:
2 июля 2021
Издатель (лейбл):
Носитель:
WEB
Формат:
PCM
Тип рипа:
tracks
Контейнер:
FLAC (*.flac)
Количество каналов:
2.0
Разрядность/ЧД:
24/44,1
Битрейт аудио:
lossless
Время звучания:
01:36:49
Наличие сканов:
только обложка

Треклист:

01 - Raney Day 05:27
02 - This Is Always 02:50
03 - East of the Sun (And West of the Moon) 05:44
04 - Street Swingers 06:21
05 - Too Late Now 04:20
06 - Willow Weep for Me 06:23
07 - Greensleeves 05:01
08 - Musicale Du Jour 08:50
09 - Things Ain't What They Used to Be 05:48
10 - Black Is the Color of My True Love's Hair 04:12
11 - Jupiter 05:07
12 - Someone to Watch Over Me 03:59
13 - Go Down, Moses 06:45
14 - What's New 04:20
15 - Hot Buttered Noodling 06:04
16 - Everything Happens to Me 04:04
17 - Arrowhead 07:01
18 - Deep in a Dream 04:33

Состав:
  • Jimmy Raney — guitar
  • Jim Hall — guitar

with

Лог проверки качества
foobar2000 1.4.3 / Dynamic Range Meter 1.1.1
log date: 2021-09-19 14:41:46
--------------------------------------------------------------------------------
Analyzed: Jimmy Raney / Two of a Kind
--------------------------------------------------------------------------------
DR         Peak         RMS     Duration Track
--------------------------------------------------------------------------------
DR9       -1.00 dB   -12.24 dB      5:27 01-Raney Day
DR10      -1.00 dB   -13.61 dB      2:50 02-This Is Always
DR11      -1.00 dB   -14.56 dB      5:45 03-East of the Sun (And West of the Moon)
DR10      -1.00 dB   -13.32 dB      6:21 04-Street Swingers
DR10      -1.00 dB   -13.16 dB      4:20 05-Too Late Now
DR11      -1.00 dB   -15.30 dB      6:24 06-Willow Weep for Me
DR11      -1.00 dB   -14.50 dB      5:02 07-Greensleeves
DR9       -1.00 dB   -12.00 dB      8:51 08-Musicale Du Jour
DR11      -1.00 dB   -14.21 dB      5:48 09-Things Ain't What They Used to Be
DR10      -1.00 dB   -14.83 dB      4:13 10-Black Is the Color of My True Love's Hair
DR9       -1.00 dB   -11.25 dB      5:08 11-Jupiter
DR8       -1.00 dB   -11.65 dB      3:59 12-Someone to Watch Over Me
DR11      -1.00 dB   -15.10 dB      6:45 13-Go Down, Moses
DR9       -1.00 dB   -12.86 dB      4:20 14-What's New
DR10      -1.00 dB   -13.29 dB      6:05 15-Hot Buttered Noodling
DR9       -1.00 dB   -12.59 dB      4:04 16-Everything Happens to Me
DR9       -1.00 dB   -12.95 dB      7:01 17-Arrowhead
DR10      -1.00 dB   -14.15 dB      4:34 18-Deep in a Dream
--------------------------------------------------------------------------------
Number of tracks:  18
Official DR value: DR10
Samplerate:        44100 Hz
Channels:          2
Bits per sample:   24
Bitrate:           1182 kbps
Codec:             FLAC
================================================================================
По всем вопросам пишите личное сообщение пользователю M0p94ok.
16:09
145
Нет комментариев. Ваш будет первым!