Поиск

2021 Jeff Parker - Forfolks {International Anthem} [CD]

2021 Jeff Parker - Forfolks {International Anthem} [CD]
Стили:
Дата записи диска:
28 июня - 29 июня 2021
Место записи:
Sholo Studio, Altadena, CA
Номер по каталогу:
IARC0052
Носитель:
CD
Тип рипа:
tracks+.cue
Аудиокодек:
FLAC (*.flac)
Битрейт аудио:
lossless
Время звучания:
00:40:21
Наличие сканов:
только обложка
Релизёр (источник):
rudeboy

01. Off Om (1:21)
02. Four Folks (5:35)
03. My Ideal (3:10)
04. Suffolk (7:38)
05. Flour of Fur (4:08)
06. Ugly Beauty (3:25)
07. Excess Success (10:53)
08. La Jetee (4:11)

Состав:
  • Jeff Parker — electric guitar
Лог создания рипа
Exact Audio Copy V1.0 beta 3 from 29. August 2011
EAC extraction logfile from 12. March 2022, 9:09
Jeff Parker / Forfolks
Used drive  : Optiarc DVD RW AD-7190S   Adapter: 1  ID: 1
Read mode               : Secure
Utilize accurate stream : Yes
Defeat audio cache      : Yes
Make use of C2 pointers : No
Read offset correction                      : 6
Overread into Lead-In and Lead-Out          : No
Fill up missing offset samples with silence : Yes
Delete leading and trailing silent blocks   : No
Null samples used in CRC calculations       : Yes
Used interface                              : Native Win32 interface for Win NT & 2000
Gap handling                                : Appended to previous track
Used output format              : User Defined Encoder
Selected bitrate                : 1024 kBit/s
Quality                         : High
Add ID3 tag                     : No
Command line compressor         : C:\Program Files (x86)\Exact Audio Copy\Flac\flac.exe
Additional command line options : -8 -V -T "ARTIST=%artist%" -T "TITLE=%title%" -T "ALBUM=%albumtitle%" -T "DATE=%year%" -T "TRACKNUMBER=%tracknr%" -T "GENRE=%genre%" -T "PERFORMER=%albuminterpret%" -T "COMPOSER=%composer%" %haslyrics%--tag-from-file=LYRICS="%lyricsfile%"%haslyrics% -T "ALBUMARTIST=%albumartist%" -T "DISCNUMBER=%cdnumber%" -T "TOTALDISCS=%totalcds%" -T "TOTALTRACKS=%numtracks%" -T "COMMENT=%comment%" %source% -o %dest%
TOC of the extracted CD
     Track |   Start  |  Length  | Start sector | End sector
    ---------------------------------------------------------
        1  |  0:00.00 |  1:21.29 |         0    |     6103
        2  |  1:21.29 |  5:34.40 |      6104    |    31193
        3  |  6:55.69 |  3:10.21 |     31194    |    45464
        4  | 10:06.15 |  7:38.20 |     45465    |    79834
        5  | 17:44.35 |  4:08.25 |     79835    |    98459
        6  | 21:52.60 |  3:24.71 |     98460    |   113830
        7  | 25:17.56 | 10:53.19 |    113831    |   162824
        8  | 36:11.00 |  4:11.11 |    162825    |   181660
Track  1
     Filename N:\New Rips\Jeff Parker - 2021 - Forfolks (IARC 0052)\01 - Off Om.wav
     Pre-gap length  0:00:02.00
     Peak level 91.7 %
     Extraction speed 3.0 X
     Track quality 100.0 %
     Test CRC 15536461
     Copy CRC 15536461
     Accurately ripped (confidence 1)  [77974ED2]  (AR v2)
     Copy OK
Track  2
     Filename N:\New Rips\Jeff Parker - 2021 - Forfolks (IARC 0052)\02 - Four Folks.wav
     Peak level 96.6 %
     Extraction speed 4.4 X
     Track quality 100.0 %
     Test CRC 4E7DCAF2
     Copy CRC 4E7DCAF2
     Accurately ripped (confidence 1)  [9BB5DFBF]  (AR v2)
     Copy OK
Track  3
     Filename N:\New Rips\Jeff Parker - 2021 - Forfolks (IARC 0052)\03 - My Ideal.wav
     Peak level 99.2 %
     Extraction speed 1.1 X
     Track quality 100.0 %
     Test CRC 5B94DF53
     Copy CRC 5B94DF53
     Accurately ripped (confidence 1)  [4A375973]  (AR v2)
     Copy OK
Track  4
     Filename N:\New Rips\Jeff Parker - 2021 - Forfolks (IARC 0052)\04 - Suffolk.wav
     Peak level 93.3 %
     Extraction speed 1.3 X
     Track quality 100.0 %
     Test CRC AA66671B
     Copy CRC AA66671B
     Accurately ripped (confidence 1)  [5997617C]  (AR v2)
     Copy OK
Track  5
     Filename N:\New Rips\Jeff Parker - 2021 - Forfolks (IARC 0052)\05 - Flour of Fur.wav
     Peak level 96.5 %
     Extraction speed 1.2 X
     Track quality 99.9 %
     Test CRC BC5E4B49
     Copy CRC BC5E4B49
     Accurately ripped (confidence 1)  [928B1225]  (AR v2)
     Copy OK
Track  6
     Filename N:\New Rips\Jeff Parker - 2021 - Forfolks (IARC 0052)\06 - Ugly Beauty.wav
     Peak level 99.7 %
     Extraction speed 1.3 X
     Track quality 100.0 %
     Test CRC 15DD0729
     Copy CRC 15DD0729
     Accurately ripped (confidence 1)  [5C8F066B]  (AR v2)
     Copy OK
Track  7
     Filename N:\New Rips\Jeff Parker - 2021 - Forfolks (IARC 0052)\07 - Excess Success.wav
     Peak level 99.8 %
     Extraction speed 1.6 X
     Track quality 100.0 %
     Test CRC 5775433B
     Copy CRC 5775433B
     Accurately ripped (confidence 1)  [0BAEFEC5]  (AR v2)
     Copy OK
Track  8
     Filename N:\New Rips\Jeff Parker - 2021 - Forfolks (IARC 0052)\08 - La Jetée.wav
     Peak level 99.7 %
     Extraction speed 1.6 X
     Track quality 100.0 %
     Test CRC 636B3D69
     Copy CRC 636B3D69
     Accurately ripped (confidence 1)  [3054882C]  (AR v2)
     Copy OK
All tracks accurately ripped
No errors occurred
End of status report
---- CUETools DB Plugin V2.1.3
[CTDB TOCID: QpWwWXFkqpmzyVdXghEqOL2I9A8-] database access error: There is an error in XML document (1, 1).
==== Log checksum 68B93B7969444985082DE7068586EF469AADBF7BA97308BC823CD66D0F8FCAC5 ====
Приватный:
Нет (DHT включён)
Размер:
143.85 Мб (150,832,622 байт) » файлов: 16
Участники:
0 раздают, 0 качают (0 участников всего)
Внешние участники:
--- [ Обновить ]
18:10
411
Нет комментариев. Ваш будет первым!