Поиск

2021 Jean Derome - Souffles {Dame} [24-48]

2021 Jean Derome - Souffles {Dame} [24-48]
Разрядность/ЧД:
24/48
Битрейт аудио:
lossless
Релизёр (источник):
Qobuz

This album is available on our DC++ hub: dc.pro-jazz.com
Этот альбом доступен на нашем DC++ хабе: dc.pro-jazz.com

01. Cantus Firmus  06:55
02. Homard abrupt  01:33
03. Tour d’horizon  06:55
04. Eskers-Zoo  03:18
05. Brusqu’arrêt  01:43
06. Pousser l’enveloppe  02:49
07. Castelet  03:40
08. Pensées pour Maître Lackritz  03:57
09. Cicatrice  02:19
10. Cabanes à moineaux  01:18
11. Plaintes pliantes  03:23
12. Comment je sens mes nerfs  05:43
13. Harpe asthmatique  04:04
14. Prédateur bipolaire  02:18
15. Défilé d’icebergs en diaporama  03:00
16. Qui-vive  03:12
17. Balafon cylindrique  03:57
18. Portrait du Poète à l’aube avec Sirène  02:48
19. Cloudy  04:48
20. Carillon de mouettes-muezzins  01:47
21. Adieu aux animaux  01:38
22. Dernier tour de piste  03:05
23. Karaoké  01:24

Состав:
  • Composers: Jean Derome, Steve Lacy
  • Performer: Jean Derome
Лог проверки качества
foobar2000 2.1.1 / Dynamic Range Meter 1.1.1
log date: 2024-03-01 18:14:53

--------------------------------------------------------------------------------
Analyzed: Jean Derome / Souffles
--------------------------------------------------------------------------------

DR         Peak         RMS     Duration Track
--------------------------------------------------------------------------------
DR16      -1.12 dB   -22.94 dB      6:55 01-Cantus Firmus
DR13      -3.24 dB   -22.29 dB      1:33 02-Homard abrupt
DR13      -3.81 dB   -23.14 dB      6:55 03-Tour d’horizon
DR12      -2.44 dB   -18.81 dB      3:19 04-Eskers-Zoo
DR13      -5.09 dB   -23.75 dB      1:44 05-Brusqu’arrêt
DR13      -2.38 dB   -20.99 dB      2:49 06-Pousser l’enveloppe
DR18      -0.09 dB   -23.99 dB      3:41 07-Castelet
DR13      -3.40 dB   -19.45 dB      3:58 08-Pensées pour Maître Lackritz
DR12      -4.02 dB   -21.33 dB      2:19 09-Cicatrice
DR22      -0.36 dB   -26.81 dB      1:18 10-Cabanes à moineaux
DR9       -5.27 dB   -19.81 dB      3:24 11-Plaintes pliantes
DR16      -0.87 dB   -23.42 dB      5:44 12-Comment je sens mes nerfs
DR18      -9.17 dB   -37.78 dB      4:05 13-Harpe asthmatique
DR13      -4.39 dB   -20.12 dB      2:19 14-Prédateur bipolaire
DR8       -6.60 dB   -18.01 dB      3:00 15-Défilé d’icebergs en diaporama
DR15      -3.00 dB   -22.21 dB      3:13 16-Qui-vive
DR18      -2.29 dB   -25.17 dB      3:58 17-Balafon cylindrique
DR14      -6.29 dB   -30.10 dB      2:48 18-Portrait du Poète à l’aube avec Sirène
DR8      -17.97 dB   -31.12 dB      4:49 19-Cloudy
DR14      -3.55 dB   -22.21 dB      1:48 20-Carillon de mouettes-muezzins
DR15      -0.09 dB   -23.04 dB      1:38 21-Adieu aux animaux
DR15      -3.27 dB   -22.99 dB      3:06 22-Dernier tour de piste
DR18      -0.41 dB   -22.60 dB      1:25 23-Karaoké
--------------------------------------------------------------------------------

Number of tracks:  23
Official DR value: DR14

Samplerate:        48000 Hz
Channels:          2
Bits per sample:   24
Bitrate:           1400 kbps
Codec:             FLAC
================================================================================
Приватный:
Да (DHT отключён)
Размер:
782.52 Мб (820,529,199 байт) » файлов: 26
Участники:
5 раздают, 0 качают (5 участников всего)
Внешние участники:
--- [ Обновить ]
19:20
88
Нет комментариев. Ваш будет первым!