Поиск

2021 Hot Lips Page - Easy Does It {Nagel Heyer} [24-44.1]

2021 Hot Lips Page - Easy Does It {Nagel Heyer} [24-44.1]
Стили:
Дата издания диска:
10 сентября 2021
Издатель (лейбл):
Носитель:
WEB
Формат:
PCM
Тип рипа:
tracks
Контейнер:
FLAC (*.flac)
Количество каналов:
2.0
Разрядность/ЧД:
24/44,1
Битрейт аудио:
lossless
Время звучания:
01:10:37
Наличие сканов:
только обложка

Треклист:

01 - Uncle Sam Blues 03:15
02 - Sweet Georgia Brown 05:22
03 - I've Got the World on a String 04:40
04 - When My Sugar Walks Down the Street 01:58
05 - South 05:20
06 - Sweet Sue, Just You 04:31
07 - How Come You Do Me Like You Do 03:20
08 - St. Louis Blues 06:59
09 - Honeysuckle Rose 04:50
10 - Baby, Won't You Please Come Home 04:06
11 - Exactly Like You 03:41
12 - When My Sugar Walks Down the Street II 04:16
13 - Runnin' Wild 06:06
14 - I Would Do Anything for You 04:59
15 - Uncle Sam Blues II 02:31
16 - You're Driving Me Crazy 03:09
17 - When My Sugar Walks Down the Street III 01:34

Состав:
  • Hot Lips Page — trumpet, vocals
Лог проверки качества
foobar2000 1.4.3 / Dynamic Range Meter 1.1.1
log date: 2021-11-01 13:23:29
--------------------------------------------------------------------------------
Analyzed: Hot Lips Page / Easy Does It
--------------------------------------------------------------------------------
DR         Peak         RMS     Duration Track
--------------------------------------------------------------------------------
DR9       -1.00 dB   -12.10 dB      3:16 01-Uncle Sam Blues
DR8       -1.00 dB   -10.84 dB      5:23 02-Sweet Georgia Brown
DR7       -1.00 dB    -9.83 dB      4:41 03-I've Got the World on a String
DR9       -1.00 dB   -11.49 dB      1:58 04-When My Sugar Walks Down the Street
DR8       -1.00 dB    -9.88 dB      5:21 05-South
DR8       -1.00 dB   -10.76 dB      4:31 06-Sweet Sue, Just You
DR7       -1.00 dB   -10.25 dB      3:21 07-How Come You Do Me Like You Do
DR8       -1.00 dB   -11.21 dB      6:59 08-St. Louis Blues
DR7       -1.00 dB   -10.02 dB      4:50 09-Honeysuckle Rose
DR8       -1.00 dB   -10.74 dB      4:06 10-Baby, Won't You Please Come Home
DR7       -1.00 dB    -9.58 dB      3:41 11-Exactly Like You
DR8       -1.00 dB   -11.17 dB      4:17 12-When My Sugar Walks Down the Street II
DR7       -1.00 dB    -9.48 dB      6:06 13-Runnin' Wild
DR7       -1.00 dB    -9.91 dB      4:59 14-I Would Do Anything for You
DR9       -1.00 dB   -12.06 dB      2:32 15-Uncle Sam Blues II
DR8       -1.00 dB   -10.45 dB      3:09 16-You're Driving Me Crazy
DR8       -1.00 dB   -11.47 dB      1:34 17-When My Sugar Walks Down the Street III
--------------------------------------------------------------------------------
Number of tracks:  17
Official DR value: DR8
Samplerate:        44100 Hz
Channels:          2
Bits per sample:   24
Bitrate:           1421 kbps
Codec:             FLAC
================================================================================
По всем вопросам пишите личное сообщение пользователю M0p94ok.
11:29
144
Нет комментариев. Ваш будет первым!