Поиск

2021 Harvie S Trio - Going For It {Savant} [24-96]

2021 Harvie S Trio - Going For It {Savant} [24-96]
Стили:
Дата издания диска:
9 июля 2021
Издатель (лейбл):
Номер по каталогу:
SCD 2195
Носитель:
WEB
Формат:
PCM
Тип рипа:
tracks
Контейнер:
FLAC (*.flac)
Количество каналов:
2.0
Разрядность/ЧД:
24/96
Битрейт аудио:
lossless
Время звучания:
01:02:12
Наличие сканов:
только обложка

Треклист:

1. On Green Dolphin Street (Live)  05:01
2. Softly, as in a Morning Sunrise (Live)  09:43
3. Peace (Live)  07:22
4. Like Someone in Love (Live)  07:11
5. Moment's Notice (Live)  07:48
6. Windows (Live)  09:50
7. Bruze (Live)  15:14

Лог проверки качества
foobar2000 1.4.2 / Dynamic Range Meter 1.1.1
log date: 2021-07-08 21:00:36

--------------------------------------------------------------------------------
Analyzed: Harvie S Trio / Going for It
--------------------------------------------------------------------------------

DR         Peak         RMS     Duration Track
--------------------------------------------------------------------------------
DR8       -0.70 dB   -11.35 dB      5:02 01-On Green Dolphin Street
DR8       -0.70 dB   -11.68 dB      9:44 02-Softly, as in a Morning Sunrise
DR10      -1.09 dB   -15.77 dB      7:23 03-Peace
DR10      -1.07 dB   -13.90 dB      7:11 04-Like Someone in Love
DR10      -0.98 dB   -12.77 dB      7:48 05-Moment's Notice
DR8       -1.20 dB   -12.74 dB      9:50 06-Windows
DR11      -1.17 dB   -15.59 dB     15:15 07-Bruze
--------------------------------------------------------------------------------

Number of tracks:  7
Official DR value: DR9

Samplerate:        96000 Hz
Channels:          2
Bits per sample:   24
Bitrate:           2825 kbps
Codec:             FLAC
================================================================================
По всем вопросам пишите личное сообщение пользователю M0p94ok.
14:32
265
Нет комментариев. Ваш будет первым!