Поиск

2021 Hank Roberts - Science of Love {Sunnyside} [24-96]

2021 Hank Roberts - Science of Love {Sunnyside} [24-96]
Дата записи диска:
26 июня - 27 июня 2017
Место записи:
Oktaven Studios, New York City, NY, USA
Дата издания диска:
23 июля 2021
Издатель (лейбл):
Номер по каталогу:
SSC 1625
Носитель:
WEB
Формат:
PCM
Тип рипа:
tracks
Контейнер:
FLAC (*.flac)
Количество каналов:
2.0
Разрядность/ЧД:
24/96
Битрейт аудио:
lossless
Время звучания:
00:54:50
Наличие сканов:
только обложка

01 - SAT - SUN PA TU X (07:21)
02 - The Sharp Peak of the Science of Love (03:01)
03 - Human Circuits (00:50)
04 - One Floor Axis (00:50)
05 - Equatorial Conductivity (02:08)
06 - Earth Sky Realms (03:45)
07 - D23 (03:07)
08 - Levity Village (02:06)
09 - Second First (01:40)
10 - Story (02:17)
11 - Shifting Paradigms In Pre GLC 3 (02:02)
12 - GLC Magnetic Floating Stripper (04:16)
13 - 17 (03:12)
14 - B45 L (12:44)
15 - Circular Rejuvenation (01:42)
16 - 205 (03:41)

Состав:
  • Luke Bergman     Mixing
  • Brian Drye     Trombone
  • Dana Lyn     Violin
  • Mike McGinnis     Clarinet, Sax (Soprano)
  • Hank Roberts     Cello, Illustrations, Liner Notes, Mixing
  • Matt Saccuccimorano     Mastering, Mixing
  • Jacob Sacks     Piano
  • Vinnie Sperrazza     Drums
  • Ryan Streber     Engineer
Лог проверки качества
foobar2000 1.4.2 / Dynamic Range Meter 1.1.1
log date: 2021-07-24 21:37:19
--------------------------------------------------------------------------------
Analyzed: Hank Roberts / Science of Love
--------------------------------------------------------------------------------
DR         Peak         RMS     Duration Track
--------------------------------------------------------------------------------
DR10      -1.00 dB   -14.96 dB      7:22 01-SAT / SUN PA TU X
DR10      -1.01 dB   -14.42 dB      3:02 02-The Sharp Peak of the Science of Love
DR10      -1.22 dB   -16.10 dB      0:51 03-Human Circuits
DR11      -7.45 dB   -24.51 dB      0:51 04-One Floor Axis
DR13      -2.30 dB   -21.38 dB      2:08 05-Equatorial Conductivity
DR12      -3.11 dB   -19.61 dB      3:45 06-Earth Sky Realms
DR10      -1.00 dB   -16.25 dB      3:08 07-D23
DR10      -1.01 dB   -14.52 dB      2:06 08-Levity Village
DR10      -1.00 dB   -13.53 dB      1:40 09-Second First
DR12      -4.33 dB   -21.64 dB      2:17 10-Story
DR11      -1.01 dB   -14.45 dB      2:03 11-Shifting Paradigms In Pre GLC 3
DR9       -1.00 dB   -12.79 dB      4:17 12-GLC Magnetic Floating Stripper
DR10      -1.00 dB   -14.39 dB     12:45 13-B45 L
DR10      -5.38 dB   -21.12 dB      1:42 14-Circular Rejuvenation
DR10      -5.44 dB   -18.95 dB      3:41 15-205
--------------------------------------------------------------------------------
Number of tracks:  15
Official DR value: DR11
Samplerate:        96000 Hz
Channels:          2
Bits per sample:   24
Bitrate:           2719 kbps
Codec:             FLAC
================================================================================
Приватный:
Нет (DHT включён)
Размер:
1.06 Гб (1,137,140,316 байт) » файлов: 17
Участники:
0 раздают, 0 качают (0 участников всего)
Внешние участники:
5 раздают, 1 качают (6 участников всего) [ Обновить ]
15:42
450
Нет комментариев. Ваш будет первым!