Поиск

2021 Golden Swing Band - Golden Rules {㈜메이드바이} [24-48]

2021 Golden Swing Band - Golden Rules {㈜메이드바이} [24-48]
Стили:
Дата издания диска:
07 августа 2021
Носитель:
WEB
Формат:
PCM
Тип рипа:
tracks
Контейнер:
FLAC (*.flac)
Количество каналов:
2.0
Разрядность/ЧД:
24/48
Битрейт аудио:
lossless
Время звучания:
00:39:57
Наличие сканов:
только обложка

Треклист:

1. I'm Putting All My Eggs In One Basket feat. Song Ha-Chul  03:34
2. How Am I To Know?  03:17
3. Love Me Or Leave Me feat. Song Ha-Chul  03:58
4. You've Changed feat. Song Ha-Chul  05:25
5. The More I See You  04:43
6. Sometimes I'm Happy  04:15
7. How High The Moon feat. Song Ha-Chul  04:39
8. Why Don't You Do Right?  04:23
9. The Very Thought Of You feat. Song Ha-Chul  05:39

Лог проверки качества
foobar2000 1.4.2 / Dynamic Range Meter 1.1.1
log date: 2021-08-09 10:25:12
--------------------------------------------------------------------------------
Analyzed: Golden Swing Band / Golden Rules
--------------------------------------------------------------------------------
DR         Peak         RMS     Duration Track
--------------------------------------------------------------------------------
DR8        0.00 dB   -10.16 dB      3:34 01-I'm Putting All My Eggs In One Basket
DR11       0.00 dB   -12.76 dB      3:18 02-How Am I To Know?
DR8        0.00 dB   -10.43 dB      3:58 03-Love Me Or Leave Me
DR9        0.00 dB   -10.95 dB      5:26 04-You've Changed
DR11       0.00 dB   -14.00 dB      4:44 05-The More I See You
DR12       0.00 dB   -13.77 dB      4:15 06-Sometimes I'm Happy
DR9        0.00 dB   -10.95 dB      4:39 07-How High The Moon
DR10       0.00 dB   -11.72 dB      4:24 08-Why Don't You Do Right?
DR11       0.00 dB   -13.94 dB      5:40 09-The Very Thought Of You
--------------------------------------------------------------------------------
Number of tracks:  9
Official DR value: DR10
Samplerate:        48000 Hz
Channels:          2
Bits per sample:   24
Bitrate:           1574 kbps
Codec:             FLAC
================================================================================
По всем вопросам пишите личное сообщение пользователю M0p94ok.
12:57
163
Нет комментариев. Ваш будет первым!