Поиск

2021 Giuseppe Vasapolli, Michele Mazzola ft. Diego Tarantino, Antonio Leta - Contrafactum {Music Gems} [24-48]

2021 Giuseppe Vasapolli, Michele Mazzola ft. Diego Tarantino, Antonio Leta - Contrafactum {Music Gems} [24-48]
Стили:
Дата издания диска:
14 июля 2021
Носитель:
WEB
Формат:
PCM
Тип рипа:
tracks
Контейнер:
FLAC (*.flac)
Количество каналов:
2.0
Разрядность/ЧД:
24/48
Битрейт аудио:
lossless
Время звучания:
00:35:30
Наличие сканов:
только обложка

01. Good Times  02:28
02. Harlem Nostalgia  02:35
03. Jazz Stroll  03:00
04. Bebop Speed  01:07
05. Cinderella Waltz  02:23
06. El Rio Carioca  02:21
07. Prayer  02:54
08. Rainy New York  02:18
09. Jazz Cats  02:01
10. Funkey Turkey  02:37
11. Night Jazz  02:05
12. Summer in Rio  02:58
13. Calypso Spritz  02:01
14. Rocking Fifties  02:32
15. Groovin Sadness  02:02

Состав:
  • Giuseppe Vasapolli — piano
  • Michele Mazzola — sax
  • Diego Tarantino — double bass
  • Antonio Leta — drums
Лог проверки качества
foobar2000 1.4.2 / Dynamic Range Meter 1.1.1
log date: 2021-08-03 14:31:29
--------------------------------------------------------------------------------
Analyzed: Giuseppe Vasapolli / Contrafactum
--------------------------------------------------------------------------------
DR         Peak         RMS     Duration Track
--------------------------------------------------------------------------------
DR9       -0.01 dB   -10.04 dB      2:29 01-Good Times
DR10      -0.03 dB   -11.53 dB      2:35 02-Harlem Nostalgia
DR9       -0.01 dB   -10.24 dB      3:01 03-Jazz Stroll
DR9       -0.01 dB    -9.85 dB      1:08 04-Bebop Speed
DR9       -0.23 dB   -11.03 dB      2:23 05-Cinderella Waltz
DR10      -0.01 dB   -11.89 dB      2:22 06-El Rio Carioca
DR10      -0.01 dB   -11.36 dB      2:55 07-Prayer
DR9       -0.01 dB   -11.89 dB      2:18 08-Rainy New York
DR9       -0.01 dB   -11.01 dB      2:02 09-Jazz Cats
DR9       -0.01 dB   -10.07 dB      2:37 10-Funkey Turkey
DR9       -0.01 dB   -10.67 dB      2:06 11-Night Jazz
DR9       -0.01 dB   -10.55 dB      2:59 12-Summer in Rio
DR11      -0.01 dB   -11.84 dB      2:02 13-Calypso Spritz
DR9       -0.01 dB   -10.16 dB      2:32 14-Rocking Fifties
DR8       -0.01 dB   -10.07 dB      2:03 15-Groovin Sadness
--------------------------------------------------------------------------------
Number of tracks:  15
Official DR value: DR9
Samplerate:        48000 Hz
Channels:          2
Bits per sample:   24
Bitrate:           1700 kbps
Codec:             FLAC
================================================================================
19:35
467
Нет комментариев. Ваш будет первым!