Поиск

2021 Elis Regina - Elis, Essa Saudade {Warner Music Brazil} [24-44.1]

2021 Elis Regina - Elis, Essa Saudade {Warner Music Brazil} [24-44.1]
Стили:
Дата издания диска:
3 декабря 2021
Издатель (лейбл):
Носитель:
WEB
Формат:
PCM
Тип рипа:
tracks
Контейнер:
FLAC (*.flac)
Количество каналов:
2.0
Разрядность/ЧД:
24/44,1
Битрейт аудио:
lossless
Время звучания:
00:58:43
Наличие сканов:
только обложка

Треклист:

01 - O bêbado e a equilibrista 03:51
02 - Cai dentro 02:40
03 - Águas de março (Ao vivo) 04:03
04 - Essa mulher 03:50
05 - Bolero de satã (feat. Cauby Peixoto) 03:32
06 - Upa, neguinho (Ao vivo) 03:13
07 - Altos e baixos 03:29
08 - As aparências enganam 04:08
09 - Madalena (Ao vivo) 02:58
10 - Pequeno exilado (feat. Raul Ellwanger) 03:39
11 - Alô! Alô! Marciano 04:12
12 - No céu da vibração 04:13
13 - Corsário 04:14
14 - Velho arvoredo 02:58
15 - Me deixas louca 03:08
16 - Aos nossos filhos 04:35

Состав:
  • Elis Regina — vocals
  • Raul Ellwanger — vocals
  • Executive Producer, Concept By – Danilo Casaletti, Renato Vieira (2)
  • Remastered By – Ricardo Garcia
Лог проверки качества
foobar2000 1.4.3 / Dynamic Range Meter 1.1.1
log date: 2021-12-03 06:49:58
--------------------------------------------------------------------------------
Analyzed: Elis Regina / Elis, essa saudade
--------------------------------------------------------------------------------
DR         Peak         RMS     Duration Track
--------------------------------------------------------------------------------
DR8       -1.06 dB   -11.77 dB      3:51 01-O bêbado e a equilibrista
DR8       -1.06 dB   -10.87 dB      2:40 02-Cai dentro
DR8       -1.06 dB   -11.59 dB      4:04 03-Águas de março  (Ao vivo)
DR8       -1.06 dB   -12.11 dB      3:50 04-Essa mulher
DR8       -1.06 dB   -10.92 dB      3:33 05-Bolero de satã (feat. Cauby Peixoto)
DR8       -1.06 dB   -11.14 dB      3:13 06-Upa, neguinho  (Ao vivo)
DR8       -1.06 dB   -12.57 dB      3:30 07-Altos e baixos
DR10      -1.06 dB   -15.27 dB      4:09 08-As aparências enganam
DR8       -1.06 dB    -9.97 dB      2:58 09-Madalena  (Ao vivo)
DR10      -1.06 dB   -13.49 dB      3:40 10-Pequeno exilado (feat. Raul Ellwanger)
DR7        0.00 dB    -8.97 dB      4:13 11-Alô! Alô! Marciano
DR5       -1.06 dB    -8.64 dB      4:13 12-No céu da vibração
DR8       -1.06 dB   -12.63 dB      4:14 13-Corsário
DR9       -1.06 dB   -13.75 dB      2:58 14-Velho arvoredo
DR8       -1.06 dB   -10.32 dB      3:09 15-Me deixas louca
DR7       -1.06 dB   -13.62 dB      4:36 16-Aos nossos filhos
--------------------------------------------------------------------------------
Number of tracks:  16
Official DR value: DR8
Samplerate:        44100 Hz
Channels:          2
Bits per sample:   24
Bitrate:           1516 kbps
Codec:             FLAC
================================================================================
По всем вопросам пишите личное сообщение пользователю M0p94ok.
17:53
219
Нет комментариев. Ваш будет первым!