Поиск

2021 Christian McBride & Inside Straight - Live at the Village Vanguard {Mack Avenue} [24-96]

2021 Christian McBride & Inside Straight - Live at the Village Vanguard {Mack Avenue} [24-96]
Дата записи диска:
5 декабря - 7 декабря 2014
Место записи:
The Village Vanguard, New York, NY
Дата издания диска:
26 ноября 2021
Издатель (лейбл):
Носитель:
WEB
Формат:
PCM
Тип рипа:
tracks
Контейнер:
FLAC (*.flac)
Количество каналов:
2.0
Разрядность/ЧД:
24/96
Битрейт аудио:
lossless
Время звучания:
01:19:45
Наличие сканов:
только обложка

01 - Sweet Bread 12:01
02 - Fair Hope Theme 13:41
03 - Ms. Angelou 10:02
04 - The Shade of the Cedar Tree 08:18
05 - Gang Gang 14:54
06 - Uncle James 10:57
07 - Stick & Move 09:52

Состав:
  • Dan Cherouny     Assistant
  • Trevor Fedele     Assistant
  • Al Pryor     Associate Producer
  • Christian McBride     Bass, Composer, Liner Notes, Producer
  • Steve Wilson     Composer, Sax (Alto), Sax (Soprano)
  • Warren Wolf     Composer, Vibraphone
  • Carl Allen     Drums
  • Todd Whitelock     Engineer, Mixing
  • Damon Whittemore     Engineer
  • Gretchen Valade     Executive Producer
  • Peter Martin     Piano
  • Chris Muth     Mastering
  • Maria Ehrenreich     Producer
  • Sharon Green     Product Manager
Лог проверки качества
foobar2000 1.4.3 / Dynamic Range Meter 1.1.1
log date: 2021-11-28 16:40:47
--------------------------------------------------------------------------------
Analyzed: Christian McBride / Live at the Village Vanguard
--------------------------------------------------------------------------------
DR         Peak         RMS     Duration Track
--------------------------------------------------------------------------------
DR10      -0.91 dB   -12.77 dB     12:02 01-Sweet Bread (Live)
DR11      -0.55 dB   -14.63 dB     13:42 02-Fair Hope Theme (Live)
DR13      -0.89 dB   -16.33 dB     10:03 03-Ms. Angelou (Live)
DR9       -0.84 dB   -12.49 dB      8:19 04-The Shade of the Cedar Tree (Live)
DR10      -0.70 dB   -12.61 dB     14:55 05-Gang Gang (Live)
DR12      -0.14 dB   -14.35 dB     10:58 06-Uncle James (Live)
DR11      -0.17 dB   -14.54 dB      9:52 07-Stick & Move (Live)
--------------------------------------------------------------------------------
Number of tracks:  7
Official DR value: DR11
Samplerate:        96000 Hz
Channels:          2
Bits per sample:   24
Bitrate:           2909 kbps
Codec:             FLAC
================================================================================
Скачивание доступно после регистрации!!
Приватный:
Нет (DHT включён)
Размер:
1.66 Гб (1,778,551,939 байт) » файлов: 12
Участники:
3 раздают, 0 качают (3 участников всего)
Внешние участники:
8 раздают, 2 качают (10 участников всего) [ Обновить ]
09:39
486
Нет комментариев. Ваш будет первым!