Поиск

2021 Champian Fulton Trio - I’ll See You In My Dreams {Venus} [DSD64 ISO]

2021 Champian Fulton Trio - I’ll See You In My Dreams {Venus} [DSD64 ISO]
Стили:
Дата записи диска:
23 ноября - 24 ноября 2020
Место записи:
FinlandStudio, Aarhus, Denmark
Дата издания диска:
15 сентября 2021
Издатель (лейбл):
Номер по каталогу:
VHGD-372
Носитель:
SACD
Формат:
DSD
Тип рипа:
image
Контейнер:
ISO (*.iso)
Количество каналов:
2.0
Разрядность/ЧД:
64 (2,8 MHz/1 Bit)
Битрейт аудио:
lossless
Время звучания:
01:00:52
Наличие сканов:
только обложка

Треклист:

01. All Of You
02. Baubles, Bangels & Beads
03. Blues For J. McShann
04. Body And Soul
05. Every Now And Then
06. I’ve Got A Crush On You
07. Happy Camper
08. I Don’t Want To Set The World On Fire
09. I’ll See You In My Dreams
10. I’ve Got My Love To Keep Me Warm
11. Opus De Funk
12. Pennies From Heaven

Состав:
  • Champian Fulton — vocals and piano
  • Hans Backenorth — bass
  • Kristian Leth — drums
Лог проверки качества
foobar2000 1.6.7 / Dynamic Range Meter 1.1.1
log date: 2021-10-26 19:49:45
--------------------------------------------------------------------------------
Analyzed: CHAMPIAN FULTON TRIO / I'll See You In My Dreams
--------------------------------------------------------------------------------
DR         Peak         RMS     Duration Track
--------------------------------------------------------------------------------
DR9       -6.43 dB   -19.14 dB      5:26 01-All Of You
DR10      -6.39 dB   -17.99 dB      4:00 02-Baubles, Bangles & Beads
DR10      -6.40 dB   -19.61 dB      5:42 03-Blues For J.McShann
DR11      -6.51 dB   -20.48 dB      4:45 04-Body And Soul
DR10      -6.47 dB   -20.35 dB      5:03 05-Every Now And Then
DR9       -6.45 dB   -19.42 dB      4:02 06-I've Got A Crush On You
DR9       -5.79 dB   -17.19 dB      3:50 07-Happy Camper
DR10      -6.41 dB   -18.62 dB      3:53 08-I Don't Want To Set The World On Fire
DR10      -6.45 dB   -18.93 dB      4:39 09-I'll See You In My Dreams
DR9       -6.42 dB   -18.22 dB      5:37 10-I've Got My Love To Keep Me Warm
DR9       -5.94 dB   -17.11 dB      5:48 11-Opus De Funk
DR8       -6.12 dB   -17.19 dB      8:08 12-Pennies From Heaven
--------------------------------------------------------------------------------
Number of tracks:  12
Official DR value: DR10
Samplerate:        2822400 Hz / PCM Samplerate: 88200 Hz
Channels:          2
Bits per sample:   1
Bitrate:           5645 kbps
Codec:             DSD64
================================================================================
По всем вопросам пишите личное сообщение пользователю M0p94ok.
11:16
144
Нет комментариев. Ваш будет первым!