Поиск

2021 Carmen McRae - A Little Moonlight (Live) {Delta, Concert Archives} [24-44.1]

2021 Carmen McRae - A Little Moonlight (Live) {Delta, Concert Archives} [24-44.1]
Стили:
Дата издания диска:
27 сентября 2021
Носитель:
WEB
Формат:
PCM
Тип рипа:
tracks
Контейнер:
FLAC (*.flac)
Количество каналов:
2.0
Разрядность/ЧД:
24/44,1
Битрейт аудио:
lossless
Время звучания:
00:51:04
Наличие сканов:
только обложка

Треклист:

01 - That Old Black Magic 03:51
02 - Don't Get Around Much Anymore 05:03
03 - Here's That Rainy Day 05:08
04 - Sometimes I'm Happy (Sometimes I'm Blue) 03:04
05 - My Funny Valentine 05:05
06 - Burst in With the Dawn 04:49
07 - On Green Dolphin Street 03:22
08 - 'Round Midnight 05:31
09 - What a Little Moonlight Can Do 02:49
10 - I'd Rather Leave While I'm in Love 02:46
11 - Sunday 05:47
12 - If Love Were All 03:49

Состав:
  • Carmen McRae — vocals
Лог проверки качества
foobar2000 1.4.3 / Dynamic Range Meter 1.1.1
log date: 2021-10-01 06:36:24
--------------------------------------------------------------------------------
Analyzed: Carmen McRae / A Little Moonlight
--------------------------------------------------------------------------------
DR         Peak         RMS     Duration Track
--------------------------------------------------------------------------------
DR11      -0.10 dB   -13.05 dB      3:51 01-That Old Black Magic (Live)
DR12      -0.10 dB   -16.53 dB      5:04 02-Don't Get Around Much Anymore (Live)
DR15      -0.10 dB   -19.07 dB      5:08 03-Here's That Rainy Day (Live)
DR11      -0.10 dB   -13.06 dB      3:04 04-Sometimes I'm Happy (Sometimes I'm Blue) (Live)
DR13      -0.10 dB   -17.70 dB      5:06 05-My Funny Valentine (Live)
DR11      -0.10 dB   -13.80 dB      4:50 06-Burst in With the Dawn (Live)
DR13      -0.10 dB   -14.97 dB      3:23 07-On Green Dolphin Street (Live)
DR14      -0.10 dB   -16.79 dB      5:31 08-'Round Midnight (Live)
DR10      -0.10 dB   -12.30 dB      2:50 09-What a Little Moonlight Can Do (Live)
DR13      -0.10 dB   -16.77 dB      2:46 10-I'd Rather Leave While I'm in Love (Live)
DR13      -0.10 dB   -14.27 dB      5:48 11-Sunday (Live)
DR13      -0.10 dB   -16.44 dB      3:50 12-If Love Were All (Live)
--------------------------------------------------------------------------------
Number of tracks:  12
Official DR value: DR12
Samplerate:        44100 Hz
Channels:          2
Bits per sample:   24
Bitrate:           1348 kbps
Codec:             FLAC
================================================================================
18:42
345
Нет комментариев. Ваш будет первым!