Поиск

2021 Brandee Younger - Somewhere Different {Impulse!} [CD]

2021 Brandee Younger - Somewhere Different {Impulse!} [CD]
Место записи:
Rudy Van Gelder Studio, Englewood Cliffs, New Jersey, USA
Дата издания диска:
20 августа 2021
Издатель (лейбл):
Номер по каталогу:
B0034001-02
Носитель:
CD
Тип рипа:
tracks+.cue
Аудиокодек:
FLAC (*.flac)
Битрейт аудио:
lossless
Время звучания:
00:43:34
Наличие сканов:
только обложка

Треклист:

01. Reclamation (6:42)
02. Spirit U Will (7:11)
03. Pretend (4:31)
04. Somewhere Different (5:21)
05. Love & Struggle (5:41)
06. Beautiful Is Black (7:05)
07. Olivia Benson (4:02)
08. Tickled Pink (3:01)

Состав:
  • Tariq Khan     Assistant Producer, Engineer, Mixing, Producer
  • Rashaan Carter     Bass (Electric), Bass (Upright)
  • Dezron Douglas     Bass (Electric), Composer, Producer
  • Ron Carter     Bass (Upright)
  • Brandee Younger     Composer, Harp, Liner Notes
  • Tarriona 'Tank' Ball     Composer, Vocals
  • Tom Arndt     Coordination, Producer
  • Marcus Gilmore     Drum, Drum Programming
  • Allan Mednard     Drums, Percussion
  • David Stoller     Engineer, Mixing
  • Maureen Sickler     Engineer
  • Anne Drummond     Flute
  • Marcus Moore     Liner Notes
  • Kevin Reeves     Mastering
  • Chelsea Baratz     Sax (Tenor)
  • Maurice Brown     Trumpet
  • Albert Allenback     Vocal Engineer
Лог создания рипа
X Lossless Decoder version 20211018 (154.0)
XLD extraction logfile from 2021-11-02 09:26:17 -0400
Brandee Younger / Somewhere Different
Used drive : TSSTcorp DVD+-RW SN-208FB (revision D100)
Media type : Pressed CD
Ripper mode             : XLD Secure Ripper
Disable audio cache     : OK for the drive with a cache less than 1375KiB
Make use of C2 pointers : NO
Read offset correction  : 6
Max retry count         : 20
Gap status              : Analyzed, Appended (except HTOA)
TOC of the extracted CD
     Track |   Start  |  Length  | Start sector | End sector
    ---------------------------------------------------------
        1  | 00:00:00 | 06:42:14 |         0    |    30163
        2  | 06:42:14 | 07:11:01 |     30164    |    62489
        3  | 13:53:15 | 04:31:10 |     62490    |    82824
        4  | 18:24:25 | 05:21:17 |     82825    |   106916
        5  | 23:45:42 | 05:41:07 |    106917    |   132498
        6  | 29:26:49 | 07:05:35 |    132499    |   164408
        7  | 36:32:09 | 04:01:72 |    164409    |   182555
        8  | 40:34:06 | 03:01:15 |    182556    |   196145
AccurateRip Summary (DiscID: 000e9e36-005fe7f7-650a3708)
    Track 01 : OK (v2, confidence 2/2)
    Track 02 : OK (v2, confidence 2/2)
    Track 03 : OK (v2, confidence 2/2)
    Track 04 : OK (v2, confidence 2/2)
    Track 05 : OK (v2, confidence 2/2)
    Track 06 : OK (v2, confidence 2/2)
    Track 07 : OK (v2, confidence 2/2)
    Track 08 : OK (v2, confidence 2/2)
        ->All tracks accurately ripped.
All Tracks
    Album gain               : -4.44 dB
    Peak                     : 0.972473
    Statistics
        Read error                           : 0
        Jitter error (maybe fixed)           : 0
        Retry sector count                   : 0
        Damaged sector count                 : 0
Track 01
    Filename : /Users/Shared/XLD Rips/Brandee Younger - Somewhere Different (2021) [FLAC]/01 Reclamation.flac
    Pre-gap length : 00:02:00
    Track gain               : -5.41 dB
    Peak                     : 0.970947
    CRC32 hash (test run)    : 8AB28B5A
    CRC32 hash               : 8AB28B5A
    CRC32 hash (skip zero)   : BEBB5225
    AccurateRip v1 signature : 46F6AF49
    AccurateRip v2 signature : 95CA3299
        ->Accurately ripped (v2, confidence 2/2)
    Statistics
        Read error                           : 0
        Jitter error (maybe fixed)           : 0
        Retry sector count                   : 0
        Damaged sector count                 : 0
Track 02
    Filename : /Users/Shared/XLD Rips/Brandee Younger - Somewhere Different (2021) [FLAC]/02 Spirit U Will.flac
    Track gain               : -5.82 dB
    Peak                     : 0.969666
    CRC32 hash (test run)    : A3AD5C27
    CRC32 hash               : A3AD5C27
    CRC32 hash (skip zero)   : 90C69554
    AccurateRip v1 signature : 929E5F52
    AccurateRip v2 signature : 2106078F
        ->Accurately ripped (v2, confidence 2/2)
    Statistics
        Read error                           : 0
        Jitter error (maybe fixed)           : 0
        Retry sector count                   : 0
        Damaged sector count                 : 0
Track 03
    Filename : /Users/Shared/XLD Rips/Brandee Younger - Somewhere Different (2021) [FLAC]/03 Pretend.flac
    Track gain               : -1.98 dB
    Peak                     : 0.970367
    CRC32 hash (test run)    : ED0E9A39
    CRC32 hash               : ED0E9A39
    CRC32 hash (skip zero)   : 265FA7EC
    AccurateRip v1 signature : 1C555686
    AccurateRip v2 signature : EB01AB0E
        ->Accurately ripped (v2, confidence 2/2)
    Statistics
        Read error                           : 0
        Jitter error (maybe fixed)           : 0
        Retry sector count                   : 0
        Damaged sector count                 : 0
Track 04
    Filename : /Users/Shared/XLD Rips/Brandee Younger - Somewhere Different (2021) [FLAC]/04 Somewhere Different.flac
    Track gain               : -3.32 dB
    Peak                     : 0.968140
    CRC32 hash (test run)    : 28A924F8
    CRC32 hash               : 28A924F8
    CRC32 hash (skip zero)   : D8FE0357
    AccurateRip v1 signature : B6978B38
    AccurateRip v2 signature : 703D6D7E
        ->Accurately ripped (v2, confidence 2/2)
    Statistics
        Read error                           : 0
        Jitter error (maybe fixed)           : 0
        Retry sector count                   : 0
        Damaged sector count                 : 0
Track 05
    Filename : /Users/Shared/XLD Rips/Brandee Younger - Somewhere Different (2021) [FLAC]/05 Love & Struggle.flac
    Track gain               : -4.26 dB
    Peak                     : 0.972473
    CRC32 hash (test run)    : 13D20EB7
    CRC32 hash               : 13D20EB7
    CRC32 hash (skip zero)   : CB57CFAE
    AccurateRip v1 signature : 5C60BBFB
    AccurateRip v2 signature : 2BFC41A2
        ->Accurately ripped (v2, confidence 2/2)
    Statistics
        Read error                           : 0
        Jitter error (maybe fixed)           : 0
        Retry sector count                   : 0
        Damaged sector count                 : 0
Track 06
    Filename : /Users/Shared/XLD Rips/Brandee Younger - Somewhere Different (2021) [FLAC]/06 Beautiful Is Black.flac
    Track gain               : -2.80 dB
    Peak                     : 0.965424
    CRC32 hash (test run)    : 078C4778
    CRC32 hash               : 078C4778
    CRC32 hash (skip zero)   : 26B4149A
    AccurateRip v1 signature : 63822D23
    AccurateRip v2 signature : D82E0AE2
        ->Accurately ripped (v2, confidence 2/2)
    Statistics
        Read error                           : 0
        Jitter error (maybe fixed)           : 0
        Retry sector count                   : 0
        Damaged sector count                 : 0
Track 07
    Filename : /Users/Shared/XLD Rips/Brandee Younger - Somewhere Different (2021) [FLAC]/07 Olivia Benson.flac
    Track gain               : -4.53 dB
    Peak                     : 0.966217
    CRC32 hash (test run)    : B73EC31F
    CRC32 hash               : B73EC31F
    CRC32 hash (skip zero)   : 9F5820BF
    AccurateRip v1 signature : 3FBAECC8
    AccurateRip v2 signature : 9282C831
        ->Accurately ripped (v2, confidence 2/2)
    Statistics
        Read error                           : 0
        Jitter error (maybe fixed)           : 0
        Retry sector count                   : 0
        Damaged sector count                 : 0
Track 08
    Filename : /Users/Shared/XLD Rips/Brandee Younger - Somewhere Different (2021) [FLAC]/08 Tickled Pink.flac
    Track gain               : -5.28 dB
    Peak                     : 0.967407
    CRC32 hash (test run)    : DCD1821E
    CRC32 hash               : DCD1821E
    CRC32 hash (skip zero)   : 9689FE3F
    AccurateRip v1 signature : 28B16F10
    AccurateRip v2 signature : 0A2F2EA3
        ->Accurately ripped (v2, confidence 2/2)
    Statistics
        Read error                           : 0
        Jitter error (maybe fixed)           : 0
        Retry sector count                   : 0
        Damaged sector count                 : 0
No errors occurred
End of status report
-----BEGIN XLD SIGNATURE-----
xVq1Mx.lb9PAakBRd0yYZuy94O4KD04YQdes_d0Np9Ot32LoZxCUZqCKdeIvypc.yMXI25ihGqMo2CSUUs8BThCVY6R1JQRegK1WHc0
-----END XLD SIGNATURE-----
По всем вопросам пишите личное сообщение пользователю M0p94ok.
20:53
136
Нет комментариев. Ваш будет первым!