Поиск

2021 Blank & Jones - Relax Edition 13 {Soundcolours} [24-44.1]

2021 Blank & Jones - Relax Edition 13 {Soundcolours} [24-44.1]
Стили:
Дата издания диска:
6 августа 2021
Издатель (лейбл):
Носитель:
WEB
Формат:
PCM
Тип рипа:
tracks
Контейнер:
FLAC (*.flac)
Количество каналов:
2.0
Разрядность/ЧД:
24/44,1
Битрейт аудио:
lossless
Наличие сканов:
только обложка

Треклист:

01 - Into the Sun (04:35)
02 - One Evening (Lo-Fi Selection) (04:28)
03 - C'est mieux (02:32)
04 - Coastline (03:20)
05 - Swept Away (03:06)
06 - Sunshine's Better (04:36)
07 - Twilight Moon (04:33)
08 - Adios Ayer (04:29)
09 - Above the Clouds (02:52)
10 - Crosswinds (04:13)
11 - Alone in This Rhythm (03:20)
12 - High Fly (04:20)
13 - All of Me (03:22)
14 - Nite Glow (03:59)
15 - Sun Goes Down (04:51)
16 - Beautiful Life (02:55)
17 - Cinque Terre (04:10)
18 - Purple Sands (03:11)
19 - Champagne Beach (04:52)
20 - Erase - Rewind (03:14)

Лог проверки качества
foobar2000 1.4.2 / Dynamic Range Meter 1.1.1
log date: 2021-08-04 19:25:04

--------------------------------------------------------------------------------
Analyzed: Blank & Jones / Relax Edition 13
--------------------------------------------------------------------------------

DR         Peak         RMS     Duration Track
--------------------------------------------------------------------------------
DR8       -0.83 dB   -12.70 dB      4:36 01-Into the Sun
DR9       -0.71 dB   -12.62 dB      4:29 02-One Evening (Lo-Fi Selection)
DR10      -0.72 dB   -12.07 dB      2:33 03-C'est mieux
DR10      -0.61 dB   -13.06 dB      3:20 04-Coastline
DR11      -0.71 dB   -13.11 dB      3:07 05-Swept Away
DR9       -0.71 dB   -12.32 dB      4:36 06-Sunshine's Better
DR11      -0.71 dB   -15.38 dB      4:34 07-Twilight Moon
DR9       -0.88 dB   -11.64 dB      4:29 08-Adios Ayer
DR8       -1.04 dB   -12.66 dB      2:52 09-Above the Clouds
DR10      -1.18 dB   -14.04 dB      4:13 10-Crosswinds
DR7       -0.61 dB    -9.17 dB      3:20 11-Alone in This Rhythm
DR8       -0.71 dB   -10.23 dB      4:20 12-High Fly
DR6       -0.82 dB    -8.11 dB      3:23 13-All of Me
DR7       -0.61 dB    -9.05 dB      4:00 14-Nite Glow
DR7       -0.78 dB    -9.59 dB      4:51 15-Sun Goes Down
DR6       -0.61 dB    -7.32 dB      2:55 16-Beautiful Life
DR6       -0.70 dB    -8.69 dB      4:10 17-Cinque Terre
DR7       -0.60 dB    -9.13 dB      3:12 18-Purple Sands
DR6       -0.61 dB    -8.70 dB      4:53 19-Champagne Beach
DR6       -0.61 dB    -7.80 dB      3:14 20-Erase / Rewind
--------------------------------------------------------------------------------

Number of tracks:  20
Official DR value: DR8

Samplerate:        44100 Hz
Channels:          2
Bits per sample:   24
Bitrate:           1429 kbps
Codec:             FLAC
================================================================================
По всем вопросам пишите личное сообщение пользователю M0p94ok.
18:20
241
Нет комментариев. Ваш будет первым!