Поиск

2021 Ben Wilcock - The River Tethys {Meow Jazz} [24-44.1]

2021 Ben Wilcock - The River Tethys {Meow Jazz} [24-44.1]
Дата издания диска:
13 августа 2021
Носитель:
WEB
Формат:
PCM
Тип рипа:
tracks
Контейнер:
FLAC (*.flac)
Количество каналов:
2.0
Разрядность/ЧД:
24/44,1
Битрейт аудио:
lossless
Время звучания:
00:44:54
Наличие сканов:
только обложка

Треклист:

01. Sol Draconi Septum  07:25
02. La Rosita  05:44
03. Grooving High  03:22
04. First Gate  04:10
05. The Butterfly  04:38
06. T’ien Shan  01:20
07. Aenea  03:12
08. The Stinger  02:29
09. Chicthatuk  03:44
10. The Secret life Of Music  04:02
11. Star Eyes  04:43

Состав:
  • Ben Wilcock — piano
  • John Rae — drums
  • Dan Yeabsley — bass
  • Tristan Carter — violin
Лог проверки качества
foobar2000 1.4.6 / Замер динамического диапазона (DR) 1.1.1
Дата отчёта:  2021-09-27 06:45:17
--------------------------------------------------------------------------------
Анализ:   Ben Wilcock / The River Tethys
--------------------------------------------------------------------------------
DR         Пики         RMS           Продолжительность трека
--------------------------------------------------------------------------------
DR13      -1.74 дБ   -18.46 дБ      7:25 01-Sol Draconi Septum
DR12      -2.72 дБ   -18.27 дБ      5:44 02-La Rosita
DR12      -2.16 дБ   -16.55 дБ      3:23 03-Grooving High
DR11      -5.73 дБ   -21.15 дБ      4:10 04-First Gate
DR12      -1.11 дБ   -17.21 дБ      4:38 05-The Butterfly
DR9       -7.18 дБ   -19.34 дБ      1:21 06-T’ien Shan
DR12      -2.82 дБ   -19.94 дБ      3:12 07-Aenea
DR12      -1.11 дБ   -16.19 дБ      2:29 08-The Stinger
DR11      -1.39 дБ   -15.65 дБ      3:45 09-Chicthatuk
DR11      -3.91 дБ   -18.32 дБ      4:03 10-The Secret life of Music
DR13      -1.20 дБ   -18.44 дБ      4:43 11-Star Eyes
--------------------------------------------------------------------------------
Количество треков: 11
Реальные значения DR: DR12
Частота:   44100 Гц
Каналов:   2
Разрядность:   24
Битрейт:   1272 кбит/с
Кодек:   FLAC
================================================================================
По всем вопросам пишите личное сообщение пользователю M0p94ok.
16:56
133
Нет комментариев. Ваш будет первым!