Поиск

2021 Archie Shepp - Live in Paris (1974) The Lost ORTF Recordings {Transversales Disques} [24-48]

2021 Archie Shepp - Live in Paris (1974) The Lost ORTF Recordings {Transversales Disques} [24-48]
Стили:
Дата записи диска:
23 марта 1974
Место записи:
Grand Auditorium Studio 104, Maison de la Radio Paris, France
Дата издания диска:
16 июля 2021
Номер по каталогу:
TRS21
Носитель:
WEB
Формат:
PCM
Тип рипа:
tracks
Контейнер:
FLAC (*.flac)
Количество каналов:
2.0
Разрядность/ЧД:
24/48
Битрейт аудио:
lossless
Время звучания:
00:47:45
Наличие сканов:
только обложка

1.  Things Have Got To Change 24:29
2.  Along Came Betty 11:00
3.  Blues For Donald Duck 12:15

Состав:
  • Archie Shepp — Saxophone
  • Noël McGhie — Drums
  • Bob Reid — Double Bass
  • Pablo Kino — Percussions
  • Siegfried Kessler- piano
  • Executive production: Jonathan Fitoussi & Sébastien Rosat
Лог проверки качества
foobar2000 1.4.2 / Dynamic Range Meter 1.1.1
log date: 2021-07-03 15:01:25

--------------------------------------------------------------------------------
Analyzed: Archie Shepp / Archie Shepp (Live in Paris 1974)
--------------------------------------------------------------------------------

DR         Peak         RMS     Duration Track
--------------------------------------------------------------------------------
DR14      -0.55 dB   -17.68 dB     24:30 01-Things Have Got To Change
DR14      -0.49 dB   -17.46 dB     11:00 02-Along Came Betty
DR13      -1.45 dB   -17.64 dB     12:15 03-Blues For Donald Duck
--------------------------------------------------------------------------------

Number of tracks:  3
Official DR value: DR14

Samplerate:        48000 Hz
Channels:          2
Bits per sample:   24
Bitrate:           1703 kbps
Codec:             FLAC
================================================================================
Приватный:
Нет (DHT включён)
Размер:
586.92 Мб (615,431,574 байт) » файлов: 4
Участники:
0 раздают, 0 качают (0 участников всего)
Внешние участники:
7 раздают, 2 качают (9 участников всего) [ Обновить ]
09:55
514
Нет комментариев. Ваш будет первым!