Поиск

2021 Andrew Cyrille Quartet - The News {ECM} [24-88.2]

2021 Andrew Cyrille Quartet - The News {ECM} [24-88.2]
Дата записи диска:
август 2019
Место записи:
Sound on Sound, New Jersey
Дата издания диска:
27 августа 2021
Издатель (лейбл):
Носитель:
WEB
Формат:
PCM
Тип рипа:
tracks
Контейнер:
FLAC (*.flac)
Количество каналов:
2.0
Разрядность/ЧД:
24/88,2
Битрейт аудио:
lossless
Время звучания:
00:53:53
Наличие сканов:
буклет pdf

Треклист:

1. Mountain (8:26)
2. Leaving East of Java (8:49)
3. Go Happy Lucky (5:22)
4. The News (5:34)
5. Incienso (5:36)
6. Baby (5:34)
7. Dance of the Nuances (7:24)
8. With You in Mind (7:11)

Состав:
  • Sun Chung     Producer
  • Andrew Cyrille     Composer, Drums
  • Bill Frisell     Composer, Guitar
  • Christopher Gold     Assistant Engineer
  • Rick Kwan     Engineer
  • Christoph Stickel     Mastering
  • Ben Street     Double Bass
  • David Virelles     Composer, Piano, Synthesizer
Лог проверки качества
foobar2000 1.4.8 / Dynamic Range Meter 1.1.1
log date: 2021-08-27 08:23:11
--------------------------------------------------------------------------------
Analyzed: Andrew Cyrille Quartet / The News
--------------------------------------------------------------------------------
DR         Peak         RMS     Duration Track
--------------------------------------------------------------------------------
DR12      -5.96 dB   -21.81 dB      8:26 01-Mountain
DR14      -4.08 dB   -23.49 dB      8:49 02-Leaving East of Java
DR14      -4.74 dB   -21.60 dB      5:22 03-Go Happy Lucky
DR14      -6.12 dB   -24.30 dB      5:34 04-The News
DR13      -8.97 dB   -26.59 dB      5:36 05-Incienso
DR13      -8.30 dB   -24.19 dB      5:34 06-Baby
DR15      -6.07 dB   -27.92 dB      7:24 07-Dance of the Nuances
DR12      -6.32 dB   -24.19 dB      7:11 08-With You in Mind
--------------------------------------------------------------------------------
Number of tracks:  8
Official DR value: DR13
Samplerate:        88200 Hz
Channels:          2
Bits per sample:   24
Bitrate:           2343 kbps
Codec:             FLAC
================================================================================
По всем вопросам пишите личное сообщение пользователю M0p94ok.
23:29
213
Нет комментариев. Ваш будет первым!