Поиск

2021 Allison Miller & Jane Ira Bloom - Tues Days {Outline} [24-44.1]

2021 Allison Miller & Jane Ira Bloom - Tues Days {Outline} [24-44.1]
Дата записи диска:
2 марта, 9 марта, 16 марта, 25 марта, 6 апреля 2021
Место записи:
NYC
Дата издания диска:
15 сентября 2021
Носитель:
WEB
Формат:
PCM
Тип рипа:
tracks
Контейнер:
FLAC (*.flac)
Количество каналов:
2.0
Разрядность/ЧД:
24/44,1
Битрейт аудио:
lossless
Время звучания:
00:56:48
Наличие сканов:
только обложка

01 - Tues Days (04:43)
02 - Technicolor (05:36)
03 - Rowing In The Dark (05:26)
04 - This Is It (03:16)
05 - Five Bells (02:16)
06 - The Wild Frontier (08:30)
07 - Light Years Away (05:59)
08 - A's & J's Test Kitchen (04:16)
09 - Crayola (06:13)
10 - On Seeing JP (04:19)
11 - Walk Alone (06:08)

Состав:
Лог проверки качества
foobar2000 1.4.2 / Dynamic Range Meter 1.1.1
log date: 2022-01-25 15:05:14
--------------------------------------------------------------------------------
Analyzed: Allison Miller & Jane Ira Bloom / Tues Days
--------------------------------------------------------------------------------
DR         Peak         RMS     Duration Track
--------------------------------------------------------------------------------
DR11      -0.20 dB   -13.03 dB      4:43 01-Tues Days
DR11      -0.20 dB   -13.76 dB      5:37 02-Technicolor
DR12      -0.20 dB   -16.36 dB      5:27 03-Rowing In The Dark
DR9       -0.20 dB   -12.50 dB      3:16 04-This Is It
DR11      -0.20 dB   -16.39 dB      2:17 05-Five Bells
DR11      -0.20 dB   -15.00 dB      8:30 06-The Wild Frontier
DR10      -0.20 dB   -15.28 dB      6:00 07-Light Years Away
DR9       -0.20 dB   -13.72 dB      4:17 08-A's & J's Test Kitchen
DR12      -0.20 dB   -15.27 dB      6:14 09-Crayola
DR11      -0.20 dB   -14.22 dB      4:19 10-On Seeing JP
DR12      -0.20 dB   -16.06 dB      6:09 11-Walk Alone
--------------------------------------------------------------------------------
Number of tracks:  11
Official DR value: DR11
Samplerate:        44100 Hz
Channels:          2
Bits per sample:   24
Bitrate:           1519 kbps
Codec:             FLAC
================================================================================
Приватный:
Нет (DHT включён)
Размер:
620.65 Мб (650,803,403 байт) » файлов: 12
Участники:
0 раздают, 0 качают (0 участников всего)
Внешние участники:
5 раздают, 2 качают (7 участников всего) [ Обновить ]
01:28
366
Нет комментариев. Ваш будет первым!