Поиск

2021 Alexey Leon - Influenciado {One World} [24-48]

2021 Alexey Leon - Influenciado {One World} [24-48]
Дата издания диска:
24 декабря 2021
Носитель:
WEB
Формат:
PCM
Тип рипа:
tracks
Контейнер:
FLAC (*.flac)
Количество каналов:
2.0
Разрядность/ЧД:
24/48
Битрейт аудио:
lossless
Наличие сканов:
только обложка

Треклист:

01 - Dat Dere 05:25
02 - De la Habana a Moscu 07:00
03 - Influenciado 03:45
04 - La Ceiba (Intro) 00:59
05 - La Ceiba 05:09
06 - Kiev Station Blues 04:48
07 - Guarachando 06:24
08 - Ya Voy 07:36
09 - The Way you look tonight 05:58
10 - Noche de Carnaval 03:30

Состав:
  • Alexey León: Saxophones & Flute
  • Carlos Sarduy: Trumpet
  • Javier Gutierrez “Caramelo de Cuba”: Piano
  • Reinier Elizarde el Negrón: Double Bass
  • Georvis Pico: Drums
  • Pedro Pablo Rodríguez: Percussion
  • Special Guest – Marc Miralta: Drums
Доп. инфо:

Алексей Леон - кубино-российский саксофонист, флейтист и композитор. Он родился в Мансанильо, Куба, и вырос в Москве, Россия. Леон получил престижную кубинскую премию "JoJazz 1st Prize" в 2017 году и имеет за плечами три выдающихся сольных релиза: Cuba meets Russia (2015), Cuban Connection (2018) и Okudzhava For My Mother (2020). Influenciado - четвертый альбом Алексея Леона.
Influenciado - это дань уважения афро-кубинской джазовой традиции и пионерам латинского джаза. Этот стремительный и диссонансный джаз с интенсивной мелодией и современным языком был вдохновлен такими классиками, как Чано Позо, Диззи Гиллеспи, Джулиан Кэннонболл Аддерли, Маккой Тайнер, Chucho Valdés & Irakére и Paquito D'Rivera.

Благодаря своей гармонической структуре, заглавная композиция "Influenciado" напоминает всемирно известный стандарт маэстро Чучо Вальдеса "Mambo Influenciado", который представляет собой скрещение кубинского джаза. Вдохновленный творчеством мастера, Алексей создал оригинальную композицию, которая сохраняет структуру минорного блюза, с кивками в сторону "Mambo Influenciado" и некоторыми более диссонансными гармоническими изменениями.

Для интерпретации этой музыки Леону аккомпанирует группа выдающихся кубинских джазменов. За роялем - Карамело де Куба (Селия Круз, Дэйв Валентин, Пакито Д'Ривера и многие другие). В ритм-секции - Джорвис Пико, Педро Пабло Родригес и Рейнир Элисарде эль Негрон (это трио завершает квартет Чучо Вальдеса). Партию трубы виртуозно исполняет многократный обладатель премий "Грэмми" и "Латинская Грэмми" Карлос Сардуй (Чучо Вальдес, Иракер, Эсперанса Сполдинг, Конча Буика, Ричард Бона). В записи также принял участие один из самых известных испанских барабанщиков Марк Миральта (Пэт Метени, Марк Тернер, Авишай Коэн).

Альбом, глубоко укорененный в кубинской музыкальной традиции и современном джазе, символизирует эволюцию Алексея как музыканта и как человека, отражая его постоянный поиск личной и музыкальной идентичности. Музыка этого плотного и легко исполняемого альбома передает буйную энергию двух неиссякаемых источников вдохновения: кубинской музыки и джаза. Это современная классика!

Лог проверки качества
foobar2000 1.4.3 / Dynamic Range Meter 1.1.1
log date: 2022-05-04 17:57:02
--------------------------------------------------------------------------------
Analyzed: Alexey Leon / Influenciado
--------------------------------------------------------------------------------
DR         Peak         RMS     Duration Track
--------------------------------------------------------------------------------
DR13      -0.52 dB   -15.25 dB      5:25 01-Dat Dere
DR12      -0.54 dB   -14.27 dB      7:01 02-De la Habana a Moscu
DR12      -0.54 dB   -14.31 dB      3:46 03-Influenciado
DR12      -0.52 dB   -17.81 dB      0:59 04-La Ceiba (Intro)
DR13      -0.52 dB   -14.81 dB      5:10 05-La Ceiba
DR15      -0.52 dB   -18.17 dB      4:49 06-Kiev Station Blues
DR11      -0.52 dB   -14.49 dB      6:25 07-Guarachando
DR14      -0.52 dB   -16.39 dB      7:37 08-Ya Voy
DR12      -0.54 dB   -14.12 dB      5:59 09-The Way you look tonight
DR12      -0.45 dB   -14.09 dB      3:31 10-Noche de Carnaval
--------------------------------------------------------------------------------
Number of tracks:  10
Official DR value: DR13
Samplerate:        48000 Hz
Channels:          2
Bits per sample:   24
Bitrate:           1679 kbps
Codec:             FLAC
================================================================================
00:49
243
Нет комментариев. Ваш будет первым!